<?xml version="1.0" standalone="no"?><!DOCTYPE svg PUBLIC "-//W3C//DTD SVG 1.1//EN" "http://www.w3.org/Graphics/SVG/1.1/DTD/svg11.dtd" ><svg xmlns="http://www.w3.org/2000/svg"><metadata></metadata><defs><font id="fonteditor" horiz-adv-x="2048"><font-face font-family="`nÑOS CN Regular" font-weight="400" font-stretch="normal" units-per-em="2048" panose-1="2 11 5 0 0 0 0 0 0 0" ascent="2376" descent="-655" x-height="0" bbox="-90 -571 2007 1802" underline-thickness="102" underline-position="-307" unicode-range="U+0021-ffe5" /><missing-glyph horiz-adv-x="2048" d="M205 -246 L205 1802 L1843 1802 L1843 -246 L205 -246 ZM1024 862 L1675 1700 L373 1700 L1024 862 ZM1090 778 L1741 -59 L1741 1616 L1090 778 ZM373 -143 L1675 -143 L1024 694 L373 -143 ZM307 1616 L307 -59 L958 778 L307 1616 Z" /><glyph glyph-name="exclam" unicode="!" d="M266 453 L242 1321 L236 1534 L426 1534 L420 1321 L395 453 L266 453 ZM330 -27 Q274 -27 234.5 12.5 Q195 52 195 115 Q195 178 234.5 219 Q274 260 330 260 Q387 260 426 219 Q465 178 465 115 Q465 52 426 12.5 Q387 -27 330 -27 Z" /><glyph glyph-name="quotedbl" unicode="&quot;" d="M225 989 L188 1368 L184 1579 L381 1579 L377 1368 L340 989 L225 989 ZM629 989 L592 1368 L586 1579 L784 1579 L780 1368 L741 989 L629 989 Z" /><glyph glyph-name="numbersign" unicode="#" d="M207 0 L262 467 L82 467 L82 598 L279 598 L322 938 L127 938 L127 1067 L336 1067 L389 1487 L510 1487 L459 1067 L762 1067 L817 1487 L936 1487 L885 1067 L1067 1067 L1067 938 L870 938 L827 598 L1022 598 L1022 467 L811 467 L756 0 L633 0 L688 467 L385 467 L328 0 L207 0 ZM401 598 L705 598 L748 938 L442 938 L401 598 Z" /><glyph glyph-name="dollar" unicode="$" d="M969 1313 L868 1202 Q805 1264 744.5 1297.5 Q684 1331 590 1331 Q484 1331 421 1270.5 Q358 1210 358 1110 Q358 1027 404.5 973 Q451 919 524 880 Q597 841 679 802.5 Q761 764 834 711.5 Q907 659 953 579.5 Q999 500 999 377 Q999 214 903.5 108.5 Q808 3 645 -20 L645 -252 L510 -252 L510 -25 Q401 -14 297 35 Q193 84 119 152 L207 279 Q279 217 367 173 Q455 129 559 129 Q687 129 752 193 Q817 257 817 365 Q817 458 771 518.5 Q725 579 652 622.5 Q579 666 497 705.5 Q415 745 342 794.5 Q269 844 222.5 917 Q176 990 176 1102 Q176 1255 268.5 1357 Q361 1459 510 1481 L510 1712 L645 1712 L645 1485 Q756 1473 831.5 1425 Q907 1377 969 1313 Z" /><glyph glyph-name="percent" unicode="%" d="M420 582 Q266 582 173 706.5 Q80 831 80 1059 Q80 1285 173 1407.5 Q266 1530 420 1530 Q575 1530 668.5 1407.5 Q762 1285 762 1059 Q762 831 668.5 706.5 Q575 582 420 582 ZM420 698 Q509 698 565 788.5 Q621 879 621 1059 Q621 1239 565 1327 Q509 1415 420 1415 Q332 1415 276.5 1327 Q221 1239 221 1059 Q221 879 276.5 788.5 Q332 698 420 698 ZM465 -27 L1292 1530 L1419 1530 L590 -27 L465 -27 ZM1466 -27 Q1313 -27 1218.5 97 Q1124 221 1124 449 Q1124 674 1218.5 797 Q1313 920 1466 920 Q1620 920 1713 797 Q1806 674 1806 449 Q1806 221 1713 97 Q1620 -27 1466 -27 ZM1466 88 Q1554 88 1609.5 178.5 Q1665 269 1665 449 Q1665 628 1609.5 716.5 Q1554 805 1466 805 Q1377 805 1321.5 716.5 Q1266 628 1266 449 Q1266 269 1321.5 178.5 Q1377 88 1466 88 Z" /><glyph glyph-name="ampersand" unicode="&amp;" d="M256 399 Q256 275 341.5 199 Q427 123 553 123 Q630 123 702.5 155.5 Q775 188 840 244 Q729 340 626.5 455.5 Q524 571 444 692 Q365 628 310.5 557.5 Q256 487 256 399 ZM432 1178 Q432 1116 451 1048 Q470 980 504 911 Q607 980 683.5 1054.5 Q760 1129 760 1229 Q760 1295 726.5 1345 Q693 1395 616 1395 Q532 1395 482 1333 Q432 1271 432 1178 ZM1358 129 L1307 -27 Q1228 -5 1141.5 38 Q1055 81 965 145 Q879 67 771.5 20 Q664 -27 530 -27 Q394 -27 291.5 27 Q189 81 131.5 174.5 Q74 268 74 389 Q74 489 115.5 567 Q157 645 224.5 707.5 Q292 770 369 823 Q323 914 296.5 1003 Q270 1092 270 1174 Q270 1274 313.5 1354.5 Q357 1435 435 1482.5 Q513 1530 616 1530 Q756 1530 833.5 1446.5 Q911 1363 911 1233 Q911 1135 861.5 1057 Q812 979 734 914 Q656 849 573 788 Q647 672 747 562 Q847 452 954 365 Q1096 550 1167 809 L1339 809 Q1296 660 1231 524.5 Q1166 389 1077 272 Q1230 163 1358 129 Z" /><glyph glyph-name="quotesingle" unicode="&#39;" d="M225 989 L188 1368 L184 1579 L381 1579 L377 1368 L340 989 L225 989 Z" /><glyph glyph-name="parenleft" unicode="(" d="M489 -403 Q348 -173 268 80.5 Q188 334 188 637 Q188 938 268 1192 Q348 1446 489 1675 L606 1622 Q473 1402 408.5 1150 Q344 898 344 637 Q344 376 408.5 123 Q473 -130 606 -348 L489 -403 Z" /><glyph glyph-name="parenright" unicode=")" d="M203 -403 L88 -348 Q220 -130 285 123 Q350 376 350 637 Q350 898 285 1150 Q220 1402 88 1622 L203 1675 Q346 1446 426 1192 Q506 938 506 637 Q506 334 426 80.5 Q346 -173 203 -403 Z" /><glyph glyph-name="asterisk" unicode="*" d="M315 965 L225 1030 L354 1243 L131 1335 L168 1440 L401 1382 L422 1630 L532 1630 L553 1384 L786 1440 L821 1335 L598 1243 L729 1030 L639 965 L477 1159 L315 965 Z" /><glyph glyph-name="plus" unicode="+" d="M494 238 L494 686 L78 686 L78 825 L494 825 L494 1272 L643 1272 L643 825 L1059 825 L1059 686 L643 686 L643 238 L494 238 Z" /><glyph glyph-name="comma" unicode="," d="M154 -389 L109 -279 Q204 -237 258 -165.5 Q312 -94 313 0 Q305 -2 291 -2 Q237 -2 195.5 31.5 Q154 65 154 129 Q154 189 196 224.5 Q238 260 295 260 Q369 260 411 201 Q453 142 453 39 Q453 -109 372.5 -220 Q292 -331 154 -389 Z" /><glyph glyph-name="hyphen" unicode="-&#x2011;" d="M94 502 L94 645 L618 645 L618 502 L94 502 Z" /><glyph glyph-name="period" unicode="." d="M285 -27 Q229 -27 189.5 12.5 Q150 52 150 115 Q150 178 189.5 219 Q229 260 285 260 Q340 260 380 219 Q420 178 420 115 Q420 52 380 12.5 Q340 -27 285 -27 Z" /><glyph glyph-name="slash" unicode="/" d="M23 -367 L637 1624 L772 1624 L160 -367 L23 -367 Z" /><glyph glyph-name="zero" unicode="0" d="M569 -27 Q354 -27 227 168.5 Q100 364 100 756 Q100 1147 227 1338.5 Q354 1530 569 1530 Q783 1530 909.5 1338 Q1036 1146 1036 756 Q1036 364 909.5 168.5 Q783 -27 569 -27 ZM569 123 Q697 123 775.5 273.5 Q854 424 854 756 Q854 1084 775.5 1231 Q697 1378 569 1378 Q440 1378 361.5 1231 Q283 1084 283 756 Q283 424 361.5 273.5 Q440 123 569 123 Z" /><glyph glyph-name="one" unicode="1" d="M180 0 L180 156 L514 156 L514 1276 L248 1276 L248 1395 Q348 1413 423 1439.5 Q498 1466 559 1501 L702 1501 L702 156 L1004 156 L1004 0 L180 0 Z" /><glyph glyph-name="two" unicode="2" d="M90 0 L90 111 Q443 419 610.5 652.5 Q778 886 778 1079 Q778 1208 710 1292 Q642 1376 502 1376 Q410 1376 331 1326 Q252 1276 190 1202 L82 1309 Q174 1409 277.5 1469.5 Q381 1530 524 1530 Q726 1530 843.5 1408.5 Q961 1287 961 1085 Q961 936 887 783.5 Q813 631 681 472.5 Q549 314 373 147 Q431 152 496.5 157 Q562 162 618 162 L1034 162 L1034 0 L90 0 Z" /><glyph glyph-name="three" unicode="3" d="M541 -27 Q364 -27 248.5 35.5 Q133 98 59 178 L154 301 Q220 232 309.5 180.5 Q399 129 526 129 Q660 129 745.5 204 Q831 279 831 408 Q831 498 786.5 565.5 Q742 633 640 671 Q538 709 365 709 L365 852 Q519 852 610 890 Q701 928 740.5 993 Q780 1058 780 1139 Q780 1248 711.5 1312.5 Q643 1377 526 1380 Q436 1377 357 1335.5 Q278 1294 215 1231 L115 1350 Q199 1428 301.5 1479 Q404 1530 535 1530 Q660 1530 759 1486 Q858 1442 914.5 1358 Q971 1274 971 1153 Q971 1016 896.5 925.5 Q822 835 702 791 L702 782 Q836 752 929 653.5 Q1022 555 1022 401 Q1022 267 957 171.5 Q892 76 783 24.5 Q674 -27 541 -27 Z" /><glyph glyph-name="four" unicode="4" d="M236 563 L694 563 L694 1024 Q694 1079 698.5 1158.5 Q703 1238 707 1296 L698 1296 Q671 1241 640.5 1185.5 Q610 1130 578 1075 L236 563 ZM1071 563 L1071 414 L872 414 L872 0 L694 0 L694 414 L41 414 L41 537 L666 1501 L872 1501 L872 563 L1071 563 Z" /><glyph glyph-name="five" unicode="5" d="M535 -27 Q359 -27 246 35 Q133 97 57 172 L150 295 Q214 230 301 179.5 Q388 129 518 129 Q606 129 678.5 172 Q751 215 794.5 294.5 Q838 374 838 483 Q838 645 753 735 Q668 825 526 825 Q451 825 396 802.5 Q341 780 276 737 L176 799 L223 1501 L954 1501 L954 1341 L387 1341 L350 907 Q399 935 452.5 951 Q506 967 573 967 Q698 967 801 916 Q904 865 965 759.5 Q1026 654 1026 489 Q1026 325 956 209.5 Q886 94 774 33.5 Q662 -27 535 -27 Z" /><glyph glyph-name="six" unicode="6" d="M616 119 Q724 119 797 213 Q870 307 870 461 Q870 613 803.5 703 Q737 793 600 793 Q529 793 448 749 Q367 705 293 600 Q310 367 392.5 243 Q475 119 616 119 ZM1020 1376 L918 1260 Q873 1313 809 1343.5 Q745 1374 676 1374 Q573 1374 486.5 1315 Q400 1256 346.5 1119.5 Q293 983 289 750 Q358 834 450 883 Q542 932 631 932 Q821 932 934 814 Q1047 696 1047 461 Q1047 315 988 205.5 Q929 96 831 34.5 Q733 -27 616 -27 Q472 -27 358.5 56 Q245 139 180 304 Q115 469 115 717 Q115 937 160 1092 Q205 1247 283 1343.5 Q361 1440 461 1485 Q561 1530 670 1530 Q786 1530 872 1486 Q958 1442 1020 1376 Z" /><glyph glyph-name="seven" unicode="7" d="M406 0 Q415 214 441 393 Q467 572 516 730.5 Q565 889 641.5 1038.5 Q718 1188 827 1341 L100 1341 L100 1501 L1040 1501 L1040 1389 Q908 1219 825.5 1062.5 Q743 906 696.5 745 Q650 584 629.5 402 Q609 220 600 0 L406 0 Z" /><glyph glyph-name="eight" unicode="8" d="M571 -27 Q433 -27 325 25 Q217 77 154.5 167 Q92 257 92 373 Q92 473 132.5 552.5 Q173 632 236.5 691 Q300 750 369 786 L369 797 Q286 854 226 939.5 Q166 1025 166 1143 Q166 1257 220 1343 Q274 1429 367 1476.5 Q460 1524 578 1524 Q706 1524 798 1473.5 Q890 1423 939.5 1333.5 Q989 1244 989 1128 Q989 1050 957.5 980.5 Q926 911 880 856 Q834 801 788 766 L788 756 Q854 718 912 665.5 Q970 613 1006 539 Q1042 465 1042 362 Q1042 253 983.5 165 Q925 77 819 25 Q713 -27 571 -27 ZM674 815 Q829 952 829 1118 Q829 1229 762 1307.5 Q695 1386 573 1386 Q471 1386 403.5 1319 Q336 1252 336 1143 Q336 1053 383.5 993 Q431 933 508.5 891.5 Q586 850 674 815 ZM575 113 Q705 113 784.5 183.5 Q864 254 864 367 Q864 467 809 531.5 Q754 596 663.5 641 Q573 686 467 729 Q376 671 319 584 Q262 497 262 389 Q262 309 303 246.5 Q344 184 414.5 148.5 Q485 113 575 113 Z" /><glyph glyph-name="nine" unicode="9" d="M535 709 Q610 709 691.5 755.5 Q773 802 848 909 Q833 1141 749 1261.5 Q665 1382 520 1382 Q413 1382 339.5 1289 Q266 1196 266 1042 Q266 890 333.5 799.5 Q401 709 535 709 ZM119 127 L221 244 Q269 190 335 159.5 Q401 129 473 129 Q570 129 653.5 188.5 Q737 248 790 385 Q843 522 850 756 Q782 671 690.5 620 Q599 569 504 569 Q316 569 203 689 Q90 809 90 1042 Q90 1188 149 1297.5 Q208 1407 305.5 1468.5 Q403 1530 520 1530 Q665 1530 778.5 1450.5 Q892 1371 958 1212.5 Q1024 1054 1024 815 Q1024 587 979.5 426.5 Q935 266 858 166 Q781 66 683 19.5 Q585 -27 479 -27 Q358 -27 270 17 Q182 61 119 127 Z" /><glyph glyph-name="colon" unicode=":" d="M285 799 Q229 799 189.5 839 Q150 879 150 940 Q150 1005 189.5 1045 Q229 1085 285 1085 Q340 1085 380 1045 Q420 1005 420 940 Q420 879 380 839 Q340 799 285 799 ZM285 -27 Q229 -27 189.5 12.5 Q150 52 150 115 Q150 178 189.5 219 Q229 260 285 260 Q340 260 380 219 Q420 178 420 115 Q420 52 380 12.5 Q340 -27 285 -27 Z" /><glyph glyph-name="semicolon" unicode=";" d="M285 799 Q229 799 189.5 839 Q150 879 150 940 Q150 1005 189.5 1045 Q229 1085 285 1085 Q340 1085 380 1045 Q420 1005 420 940 Q420 879 380 839 Q340 799 285 799 ZM154 -389 L109 -279 Q204 -237 258 -165.5 Q312 -94 313 0 Q305 -2 291 -2 Q237 -2 195.5 31.5 Q154 65 154 129 Q154 189 196 224.5 Q238 260 295 260 Q369 260 411 201 Q453 142 453 39 Q453 -109 372.5 -220 Q292 -331 154 -389 Z" /><glyph glyph-name="less" unicode="&lt;" d="M1059 299 L78 684 L78 834 L1059 1219 L1059 1057 L575 879 L268 764 L268 756 L575 641 L1059 463 L1059 299 Z" /><glyph glyph-name="equal" unicode="=" d="M78 930 L78 1069 L1059 1069 L1059 930 L78 930 ZM78 440 L78 580 L1059 580 L1059 440 L78 440 Z" /><glyph glyph-name="greater" unicode="&gt;" d="M78 299 L78 463 L561 641 L868 756 L868 764 L561 879 L78 1057 L78 1219 L1059 834 L1059 684 L78 299 Z" /><glyph glyph-name="question" unicode="?" d="M365 453 Q350 560 378 643 Q406 726 455 794 Q504 862 556 923.5 Q608 985 644 1048 Q680 1111 680 1184 Q680 1276 624 1340.5 Q568 1405 459 1405 Q382 1405 315 1370 Q248 1335 195 1274 L88 1372 Q159 1454 257 1507.5 Q355 1561 479 1561 Q653 1561 757.5 1462 Q862 1363 862 1196 Q862 1106 825 1033.5 Q788 961 735 896.5 Q682 832 631 766.5 Q580 701 549.5 625 Q519 549 530 453 L365 453 ZM453 -27 Q397 -27 357 12.5 Q317 52 317 115 Q317 178 357 219 Q397 260 453 260 Q509 260 549.5 219 Q590 178 590 115 Q590 52 549.5 12.5 Q509 -27 453 -27 Z" /><glyph glyph-name="at" unicode="@" d="M922 -354 Q753 -354 607 -301 Q461 -248 350 -144 Q239 -40 177 112.5 Q115 265 115 465 Q115 695 191.5 881.5 Q268 1068 401 1201.5 Q534 1335 706 1407 Q878 1479 1069 1479 Q1299 1479 1468 1383.5 Q1637 1288 1729 1117 Q1821 946 1821 721 Q1821 571 1779.5 457.5 Q1738 344 1670 267 Q1602 190 1522 151.5 Q1442 113 1364 113 Q1270 113 1204.5 156 Q1139 199 1128 287 L1122 287 Q1067 221 993 175 Q919 129 844 129 Q727 129 648 213.5 Q569 298 569 455 Q569 545 600 638.5 Q631 732 689 810.5 Q747 889 828 937 Q909 985 1010 985 Q1131 985 1192 872 L1196 872 L1223 967 L1346 967 L1255 510 Q1223 372 1255 307 Q1287 242 1380 242 Q1453 242 1524.5 297.5 Q1596 353 1643 458.5 Q1690 564 1690 713 Q1690 898 1617.5 1043 Q1545 1188 1404 1271 Q1263 1354 1055 1354 Q902 1354 758.5 1291.5 Q615 1229 501.5 1113 Q388 997 321 834 Q254 671 254 471 Q254 248 343 91.5 Q432 -65 585.5 -147 Q739 -229 934 -229 Q1038 -229 1134 -200.5 Q1230 -172 1307 -127 L1356 -238 Q1256 -297 1148 -325.5 Q1040 -354 922 -354 ZM881 258 Q928 258 980.5 290.5 Q1033 323 1092 393 L1157 758 Q1125 810 1090.5 832 Q1056 854 1010 854 Q942 854 888.5 818 Q835 782 797 724 Q759 666 739 597.5 Q719 529 719 465 Q719 354 765.5 306 Q812 258 881 258 Z" /><glyph glyph-name="A" unicode="a" d="M391 610 L846 610 L774 840 Q733 967 696 1092 Q659 1217 623 1348 L614 1348 Q579 1215 542 1091 Q505 967 465 840 L391 610 ZM1036 0 L893 459 L344 459 L199 0 L6 0 L516 1501 L727 1501 L1237 0 L1036 0 Z" /><glyph glyph-name="B" unicode="b" d="M205 0 L205 1501 L651 1501 Q804 1501 920 1464.5 Q1036 1428 1101.5 1347.5 Q1167 1267 1167 1135 Q1167 1022 1109.5 932.5 Q1052 843 946 809 L946 799 Q1081 773 1167 683.5 Q1253 594 1253 440 Q1253 293 1181 195 Q1109 97 980.5 48.5 Q852 0 684 0 L205 0 ZM395 862 L618 862 Q812 862 896.5 929 Q981 996 981 1110 Q981 1242 891.5 1297 Q802 1352 627 1352 L395 1352 L395 862 ZM395 152 L657 152 Q851 152 959 223 Q1067 294 1067 446 Q1067 586 960.5 651.5 Q854 717 657 717 L395 717 L395 152 Z" /><glyph glyph-name="C" unicode="c" d="M772 -27 Q586 -27 438 65.5 Q290 158 204.5 332 Q119 506 119 750 Q119 992 206 1167 Q293 1342 443.5 1436 Q594 1530 784 1530 Q921 1530 1026.5 1473 Q1132 1416 1196 1343 L1094 1221 Q1035 1284 959 1324 Q883 1364 786 1364 Q644 1364 537.5 1290 Q431 1216 372 1079.5 Q313 943 313 756 Q313 566 370 428 Q427 290 532 214.5 Q637 139 780 139 Q888 139 972 184 Q1056 229 1128 307 L1233 188 Q1144 86 1031 29.5 Q918 -27 772 -27 Z" /><glyph glyph-name="D" unicode="d" d="M205 0 L205 1501 L582 1501 Q927 1501 1108.5 1307.5 Q1290 1114 1290 756 Q1290 399 1109.5 199.5 Q929 0 590 0 L205 0 ZM395 156 L565 156 Q831 156 962.5 314 Q1094 472 1094 756 Q1094 1041 962.5 1194.5 Q831 1348 565 1348 L395 1348 L395 156 Z" /><glyph glyph-name="E" unicode="e" d="M205 0 L205 1501 L1071 1501 L1071 1341 L395 1341 L395 870 L965 870 L965 709 L395 709 L395 162 L1094 162 L1094 0 L205 0 Z" /><glyph glyph-name="F" unicode="f" d="M205 0 L205 1501 L1071 1501 L1071 1341 L395 1341 L395 834 L969 834 L969 674 L395 674 L395 0 L205 0 Z" /><glyph glyph-name="G" unicode="g" d="M795 -27 Q597 -27 444.5 65.5 Q292 158 205.5 332 Q119 506 119 750 Q119 992 208 1167 Q297 1342 452.5 1436 Q608 1530 807 1530 Q964 1530 1069.5 1471.5 Q1175 1413 1239 1343 L1137 1221 Q1080 1281 1003 1322.5 Q926 1364 811 1364 Q660 1364 548.5 1290 Q437 1216 375 1079.5 Q313 943 313 756 Q313 472 442.5 305.5 Q572 139 813 139 Q894 139 967.5 162.5 Q1041 186 1085 227 L1085 621 L768 621 L768 778 L1260 778 L1260 147 Q1187 72 1067 22.5 Q947 -27 795 -27 Z" /><glyph glyph-name="H" unicode="h" d="M205 0 L205 1501 L395 1501 L395 872 L1096 872 L1096 1501 L1284 1501 L1284 0 L1096 0 L1096 709 L395 709 L395 0 L205 0 Z" /><glyph glyph-name="I" unicode="i" d="M205 0 L205 1501 L395 1501 L395 0 L205 0 Z" /><glyph glyph-name="J" unicode="j" d="M485 -27 Q343 -27 240.5 33.5 Q138 94 72 211 L207 307 Q258 218 322 178.5 Q386 139 467 139 Q588 139 648.5 213.5 Q709 288 709 459 L709 1501 L897 1501 L897 440 Q897 311 855 205 Q813 99 722.5 36 Q632 -27 485 -27 Z" /><glyph glyph-name="K" unicode="k" d="M205 0 L205 1501 L395 1501 L395 748 L401 748 L1028 1501 L1241 1501 L772 930 L1315 0 L1102 0 L653 782 L395 475 L395 0 L205 0 Z" /><glyph glyph-name="L" unicode="l" d="M205 0 L205 1501 L395 1501 L395 162 L1051 162 L1051 0 L205 0 Z" /><glyph glyph-name="M" unicode="m" d="M205 0 L205 1501 L434 1501 L723 698 Q749 620 775.5 541.5 Q802 463 829 385 L840 385 Q866 463 891 541.5 Q916 620 942 698 L1229 1501 L1458 1501 L1458 0 L1280 0 L1280 831 Q1280 928 1288.5 1052 Q1297 1176 1305 1274 L1296 1274 L1178 932 L893 152 L766 152 L481 932 L362 1274 L354 1274 Q360 1176 368.5 1052 Q377 928 377 831 L377 0 L205 0 Z" /><glyph glyph-name="N" unicode="n" d="M205 0 L205 1501 L401 1501 L948 555 L1108 246 L1118 246 Q1111 359 1102.5 481.5 Q1094 604 1094 721 L1094 1501 L1274 1501 L1274 0 L1079 0 L532 948 L371 1257 L362 1257 Q369 1144 377 1025.5 Q385 907 385 788 L385 0 L205 0 Z" /><glyph glyph-name="O" unicode="o" d="M760 -27 Q571 -27 426.5 68.5 Q282 164 200.5 339.5 Q119 515 119 756 Q119 996 200.5 1169.5 Q282 1343 426.5 1436.5 Q571 1530 760 1530 Q948 1530 1092.5 1436.5 Q1237 1343 1319 1169.5 Q1401 996 1401 756 Q1401 515 1319 339.5 Q1237 164 1092.5 68.5 Q948 -27 760 -27 ZM760 139 Q894 139 994.5 215 Q1095 291 1150.5 429.5 Q1206 568 1206 756 Q1206 944 1150.5 1080.5 Q1095 1217 994.5 1290.5 Q894 1364 760 1364 Q625 1364 524.5 1290.5 Q424 1217 368.5 1080.5 Q313 944 313 756 Q313 568 368.5 429.5 Q424 291 524.5 215 Q625 139 760 139 Z" /><glyph glyph-name="P" unicode="p" d="M205 0 L205 1501 L633 1501 Q802 1501 928.5 1459.5 Q1055 1418 1125.5 1321.5 Q1196 1225 1196 1061 Q1196 902 1126 799 Q1056 696 931.5 646 Q807 596 643 596 L395 596 L395 0 L205 0 ZM395 750 L618 750 Q817 750 912.5 825 Q1008 900 1008 1061 Q1008 1224 908 1286 Q808 1348 610 1348 L395 1348 L395 750 Z" /><glyph glyph-name="Q" unicode="q" d="M313 756 Q313 564 368.5 423.5 Q424 283 524.5 206 Q625 129 760 129 Q894 129 994.5 206 Q1095 283 1150.5 423.5 Q1206 564 1206 756 Q1206 944 1150.5 1080.5 Q1095 1217 994.5 1290.5 Q894 1364 760 1364 Q625 1364 524.5 1290.5 Q424 1217 368.5 1080.5 Q313 944 313 756 ZM1397 -197 L1434 -344 Q1400 -356 1343 -366.5 Q1286 -377 1219 -377 Q1011 -377 871 -276.5 Q731 -176 668 -20 Q504 2 380.5 102.5 Q257 203 188 369.5 Q119 536 119 756 Q119 996 200.5 1169.5 Q282 1343 426.5 1436.5 Q571 1530 760 1530 Q948 1530 1092.5 1436.5 Q1237 1343 1319 1169.5 Q1401 996 1401 756 Q1401 540 1334.5 376 Q1268 212 1148.5 110.5 Q1029 9 870 -18 Q921 -118 1018.5 -168.5 Q1116 -219 1239 -219 Q1290 -219 1329 -212.5 Q1368 -206 1397 -197 Z" /><glyph glyph-name="R" unicode="r" d="M395 1348 L395 791 L647 791 Q824 791 918 862 Q1012 933 1012 1079 Q1012 1228 918 1288 Q824 1348 647 1348 L395 1348 ZM1245 0 L1030 0 L666 637 L395 637 L395 0 L205 0 L205 1501 L676 1501 Q828 1501 946.5 1461 Q1065 1421 1132.5 1328.5 Q1200 1236 1200 1079 Q1200 904 1107 799 Q1014 694 860 657 L1245 0 Z" /><glyph glyph-name="S" unicode="s" d="M623 -27 Q463 -27 329 33.5 Q195 94 96 197 L209 326 Q290 241 399 190 Q508 139 625 139 Q772 139 856 206.5 Q940 274 940 385 Q940 462 907 509 Q874 556 817.5 588 Q761 620 690 651 L473 745 Q403 775 332.5 823 Q262 871 215 946 Q168 1021 168 1130 Q168 1246 229.5 1336.5 Q291 1427 398 1478.5 Q505 1530 641 1530 Q775 1530 889.5 1478 Q1004 1426 1083 1343 L983 1223 Q914 1287 829.5 1325.5 Q745 1364 641 1364 Q514 1364 437 1304 Q360 1244 360 1143 Q360 1070 398 1024 Q436 978 493 948 Q550 918 608 893 L823 801 Q910 763 980 712.5 Q1050 662 1091.5 586.5 Q1133 511 1133 399 Q1133 281 1070.5 184 Q1008 87 893.5 30 Q779 -27 623 -27 Z" /><glyph glyph-name="T" unicode="t" d="M518 0 L518 1341 L63 1341 L63 1501 L1163 1501 L1163 1341 L709 1341 L709 0 L518 0 Z" /><glyph glyph-name="U" unicode="u" d="M737 -27 Q585 -27 463 34.5 Q341 96 270 237.5 Q199 379 199 621 L199 1501 L389 1501 L389 614 Q389 433 435.5 329.5 Q482 226 561 182.5 Q640 139 737 139 Q838 139 919 182.5 Q1000 226 1048 329.5 Q1096 433 1096 614 L1096 1501 L1278 1501 L1278 621 Q1278 379 1207 237.5 Q1136 96 1013.5 34.5 Q891 -27 737 -27 Z" /><glyph glyph-name="V" unicode="v" d="M481 0 L2 1501 L201 1501 L444 688 Q484 556 515.5 440.5 Q547 325 590 193 L598 193 Q639 325 671 440.5 Q703 556 743 688 L985 1501 L1178 1501 L700 0 L481 0 Z" /><glyph glyph-name="W" unicode="w" d="M371 0 L51 1501 L248 1501 L406 684 Q427 563 449.5 441.5 Q472 320 494 199 L502 199 Q528 320 555.5 441.5 Q583 563 610 684 L817 1501 L989 1501 L1200 684 Q1228 564 1254.5 443 Q1281 322 1307 199 L1317 199 Q1360 444 1403 684 L1561 1501 L1743 1501 L1432 0 L1204 0 L977 905 Q957 994 939.5 1077.5 Q922 1161 903 1247 L895 1247 Q877 1161 857.5 1077.5 Q838 994 819 905 L596 0 L371 0 Z" /><glyph glyph-name="X" unicode="x" d="M35 0 L473 776 L63 1501 L272 1501 L477 1118 Q506 1066 532.5 1015 Q559 964 596 899 L604 899 Q635 964 659 1015 Q683 1066 711 1118 L911 1501 L1110 1501 L700 766 L1139 0 L930 0 L709 406 Q679 461 647.5 520.5 Q616 580 580 647 L571 647 Q508 514 451 406 L233 0 L35 0 Z" /><glyph glyph-name="Y" unicode="y" d="M449 0 L449 584 L-2 1501 L201 1501 L393 1077 Q430 994 465.5 914 Q501 834 541 750 L549 750 Q589 834 627 914 Q665 994 698 1077 L893 1501 L1090 1501 L639 584 L639 0 L449 0 Z" /><glyph glyph-name="Z" unicode="z" d="M102 0 L102 113 L895 1341 L174 1341 L174 1501 L1128 1501 L1128 1391 L336 162 L1137 162 L1137 0 L102 0 Z" /><glyph glyph-name="bracketleft" unicode="[" d="M215 -348 L215 1620 L623 1620 L623 1516 L356 1516 L356 -242 L623 -242 L623 -348 L215 -348 Z" /><glyph glyph-name="backslash" unicode="\" d="M643 -367 L31 1624 L166 1624 L778 -367 L643 -367 Z" /><glyph glyph-name="bracketright" unicode="]" d="M70 -348 L70 -242 L336 -242 L336 1516 L70 1516 L70 1620 L477 1620 L477 -348 L70 -348 Z" /><glyph glyph-name="asciicircum" unicode="^" d="M137 649 L485 1534 L651 1534 L999 649 L836 649 L684 1055 L573 1360 L563 1360 L451 1055 L301 649 L137 649 Z" /><glyph glyph-name="underscore" unicode="_" d="M27 -287 L27 -162 L1116 -162 L1116 -287 L27 -287 Z" /><glyph glyph-name="a" unicode="a" d="M444 -27 Q305 -27 212 55.5 Q119 138 119 289 Q119 470 283.5 567.5 Q448 665 803 705 Q803 776 783.5 840.5 Q764 905 714.5 945 Q665 985 573 985 Q477 985 391.5 948 Q306 911 240 866 L166 995 Q243 1044 357 1092.5 Q471 1141 604 1141 Q807 1141 898 1015.5 Q989 890 989 684 L989 0 L836 0 L819 133 L813 133 Q733 67 640 20 Q547 -27 444 -27 ZM498 123 Q579 123 650 160.5 Q721 198 803 270 L803 582 Q615 559 505.5 520.5 Q396 482 348.5 427.5 Q301 373 301 301 Q301 206 358 164.5 Q415 123 498 123 Z" /><glyph glyph-name="b" unicode="b" d="M678 -27 Q601 -27 517.5 10 Q434 47 360 115 L354 115 L338 0 L188 0 L188 1630 L375 1630 L375 1184 L369 983 Q444 1049 534.5 1095 Q625 1141 717 1141 Q861 1141 960 1070.5 Q1059 1000 1110 872.5 Q1161 745 1161 575 Q1161 384 1093.5 249.5 Q1026 115 916 44 Q806 -27 678 -27 ZM647 129 Q785 129 876 246.5 Q967 364 967 571 Q967 756 899.5 869.5 Q832 983 674 983 Q603 983 529 944 Q455 905 375 829 L375 246 Q449 181 520.5 155 Q592 129 647 129 Z" /><glyph glyph-name="c" unicode="c" d="M627 -27 Q479 -27 361 42 Q243 111 173.5 241 Q104 371 104 555 Q104 740 179 871 Q254 1002 376.5 1071.5 Q499 1141 641 1141 Q750 1141 828.5 1101.5 Q907 1062 967 1010 L870 885 Q821 929 768 957 Q715 985 647 985 Q547 985 468 931 Q389 877 344 780 Q299 683 299 555 Q299 427 342.5 331 Q386 235 463.5 182 Q541 129 643 129 Q720 129 786.5 160.5 Q853 192 905 240 L985 115 Q911 47 819 10 Q727 -27 627 -27 Z" /><glyph glyph-name="d" unicode="d" d="M567 -27 Q358 -27 233.5 125 Q109 277 109 555 Q109 735 176 866.5 Q243 998 353 1069.5 Q463 1141 590 1141 Q688 1141 758.5 1106 Q829 1071 903 1010 L893 1202 L893 1630 L1079 1630 L1079 0 L928 0 L909 131 L905 131 Q839 67 753 20 Q667 -27 567 -27 ZM608 129 Q685 129 754.5 167.5 Q824 206 893 283 L893 866 Q822 929 757 956 Q692 983 623 983 Q532 983 459.5 929.5 Q387 876 344 780 Q301 684 301 557 Q301 356 381 242.5 Q461 129 608 129 Z" /><glyph glyph-name="e" unicode="e" d="M637 -27 Q489 -27 368.5 42 Q248 111 176 241.5 Q104 372 104 555 Q104 735 176 866.5 Q248 998 362.5 1069.5 Q477 1141 606 1141 Q818 1141 933.5 999 Q1049 857 1049 618 Q1049 588 1046 560 Q1043 532 1040 512 L291 512 Q300 334 400.5 228.5 Q501 123 659 123 Q741 123 809 146 Q877 169 938 211 L1006 88 Q932 40 841.5 6.5 Q751 -27 637 -27 ZM289 645 L885 645 Q885 814 812 902.5 Q739 991 608 991 Q490 991 398 900 Q306 809 289 645 Z" /><glyph glyph-name="f" unicode="f" d="M729 1620 L688 1479 Q624 1507 563 1507 Q406 1507 406 1288 L406 1112 L641 1112 L641 961 L406 961 L406 0 L219 0 L219 961 L68 961 L68 1102 L219 1112 L219 1290 Q219 1459 298 1558 Q377 1657 543 1657 Q593 1657 641 1647 Q689 1637 729 1620 Z" /><glyph glyph-name="g" unicode="g" d="M563 -512 Q359 -512 230.5 -434.5 Q102 -357 102 -213 Q102 -142 146 -77 Q190 -12 268 39 L268 47 Q224 73 195 118 Q166 163 166 229 Q166 298 207 352 Q248 406 291 436 L291 444 Q236 489 190.5 566.5 Q145 644 145 743 Q145 865 202.5 954.5 Q260 1044 355.5 1092.5 Q451 1141 563 1141 Q609 1141 649.5 1132 Q690 1123 719 1112 L1106 1112 L1106 969 L879 969 Q919 930 944 871 Q969 812 969 739 Q969 621 914.5 534 Q860 447 768 399.5 Q676 352 563 352 Q475 352 397 391 Q367 365 346.5 334.5 Q326 304 326 258 Q326 204 367 170.5 Q408 137 520 137 L737 137 Q931 137 1027.5 73.5 Q1124 10 1124 -127 Q1124 -230 1055.5 -318 Q987 -406 861 -459 Q735 -512 563 -512 ZM563 479 Q658 479 728.5 550.5 Q799 622 799 743 Q799 865 730.5 934.5 Q662 1004 563 1004 Q465 1004 395.5 935 Q326 866 326 743 Q326 622 396 550.5 Q466 479 563 479 ZM590 -385 Q696 -385 776 -352 Q856 -319 900 -266.5 Q944 -214 944 -156 Q944 -79 885.5 -48.5 Q827 -18 717 -18 L524 -18 Q494 -18 456 -13.5 Q418 -9 381 0 Q321 -43 293.5 -91 Q266 -139 266 -188 Q266 -278 352 -331.5 Q438 -385 590 -385 Z" /><glyph glyph-name="h" unicode="h" d="M188 0 L188 1630 L375 1630 L375 1184 L369 954 Q445 1031 534.5 1086 Q624 1141 737 1141 Q912 1141 994.5 1029.5 Q1077 918 1077 705 L1077 0 L891 0 L891 680 Q891 837 841 907 Q791 977 680 977 Q594 977 526.5 934 Q459 891 375 807 L375 0 L188 0 Z" /><glyph glyph-name="i" unicode="i" d="M188 0 L188 1112 L375 1112 L375 0 L188 0 ZM283 1341 Q227 1341 190.5 1375.5 Q154 1410 154 1462 Q154 1519 190.5 1551 Q227 1583 283 1583 Q338 1583 375 1551 Q412 1519 412 1462 Q412 1410 375 1375.5 Q338 1341 283 1341 Z" /><glyph glyph-name="j" unicode="j" d="M74 -498 Q23 -498 -19 -489 Q-61 -480 -90 -469 L-53 -326 Q-32 -333 -5 -339.5 Q22 -346 51 -346 Q136 -346 163 -287 Q190 -228 190 -127 L190 1112 L377 1112 L377 -127 Q377 -297 307.5 -397.5 Q238 -498 74 -498 ZM285 1341 Q229 1341 192.5 1375.5 Q156 1410 156 1462 Q156 1519 192.5 1551 Q229 1583 285 1583 Q338 1583 376 1551 Q414 1519 414 1462 Q414 1410 376 1375.5 Q338 1341 285 1341 Z" /><glyph glyph-name="k" unicode="k" d="M188 0 L188 1630 L373 1630 L373 524 L377 524 L854 1112 L1061 1112 L688 666 L1110 0 L907 0 L582 537 L373 293 L373 0 L188 0 Z" /><glyph glyph-name="l" unicode="l" d="M385 -27 Q281 -27 234.5 38 Q188 103 188 221 L188 1630 L375 1630 L375 209 Q375 166 391 147.5 Q407 129 428 129 Q436 129 444 129.5 Q452 130 467 133 L494 -10 Q474 -18 448 -22.5 Q422 -27 385 -27 Z" /><glyph glyph-name="m" unicode="m" d="M188 0 L188 1112 L342 1112 L358 950 L365 950 Q437 1030 524 1085.5 Q611 1141 711 1141 Q838 1141 911 1083.5 Q984 1026 1018 928 Q1104 1021 1193.5 1081 Q1283 1141 1384 1141 Q1556 1141 1639 1029.5 Q1722 918 1722 705 L1722 0 L1536 0 L1536 680 Q1536 837 1485.5 907 Q1435 977 1329 977 Q1203 977 1049 807 L1049 0 L862 0 L862 680 Q862 837 811.5 907 Q761 977 655 977 Q527 977 375 807 L375 0 L188 0 Z" /><glyph glyph-name="n" unicode="n" d="M188 0 L188 1112 L342 1112 L358 952 L365 952 Q444 1031 534 1086 Q624 1141 737 1141 Q912 1141 994.5 1029.5 Q1077 918 1077 705 L1077 0 L891 0 L891 680 Q891 837 841 907 Q791 977 680 977 Q594 977 526.5 934 Q459 891 375 807 L375 0 L188 0 Z" /><glyph glyph-name="o" unicode="o" d="M621 -27 Q484 -27 366.5 42 Q249 111 176.5 241 Q104 371 104 555 Q104 740 176.5 871 Q249 1002 366.5 1071.5 Q484 1141 621 1141 Q757 1141 874.5 1071.5 Q992 1002 1064.5 871 Q1137 740 1137 555 Q1137 371 1064.5 241 Q992 111 874.5 42 Q757 -27 621 -27 ZM621 129 Q765 129 854.5 246 Q944 363 944 555 Q944 683 903.5 780 Q863 877 790 931 Q717 985 621 985 Q524 985 452 931 Q380 877 339.5 780 Q299 683 299 555 Q299 363 387.5 246 Q476 129 621 129 Z" /><glyph glyph-name="p" unicode="p" d="M188 -469 L188 1112 L342 1112 L358 985 L365 985 Q440 1047 531 1094 Q622 1141 719 1141 Q862 1141 960.5 1070.5 Q1059 1000 1110 872 Q1161 744 1161 573 Q1161 383 1093.5 249 Q1026 115 916 44 Q806 -27 678 -27 Q603 -27 524.5 7 Q446 41 371 102 L375 -92 L375 -469 L188 -469 ZM647 129 Q785 129 876 246.5 Q967 364 967 571 Q967 756 899.5 869.5 Q832 983 674 983 Q603 983 529.5 944 Q456 905 375 829 L375 246 Q450 181 521 155 Q592 129 647 129 Z" /><glyph glyph-name="q" unicode="q" d="M893 -469 L893 -74 L903 129 Q836 63 750 18 Q664 -27 567 -27 Q358 -27 233.5 125 Q109 277 109 555 Q109 735 176 866.5 Q243 998 353 1069.5 Q463 1141 590 1141 Q687 1141 761 1106.5 Q835 1072 907 1006 L913 1006 L932 1112 L1079 1112 L1079 -469 L893 -469 ZM608 129 Q685 129 754.5 167.5 Q824 206 893 283 L893 866 Q822 929 757 956 Q692 983 623 983 Q532 983 459.5 929.5 Q387 876 344 780 Q301 684 301 557 Q301 356 381 242.5 Q461 129 608 129 Z" /><glyph glyph-name="r" unicode="r" d="M188 0 L188 1112 L342 1112 L358 909 L365 909 Q423 1015 504.5 1078 Q586 1141 680 1141 Q752 1141 799 1116 L764 952 Q717 971 655 971 Q586 971 508 914.5 Q430 858 375 715 L375 0 L188 0 Z" /><glyph glyph-name="s" unicode="s" d="M479 -27 Q361 -27 252 17 Q143 61 63 127 L156 250 Q228 191 307 155 Q386 119 485 119 Q596 119 650.5 170 Q705 221 705 293 Q705 349 667 387.5 Q629 426 570.5 453 Q512 480 451 504 Q373 532 296.5 571 Q220 610 169.5 670.5 Q119 731 119 825 Q119 957 220 1049 Q321 1141 502 1141 Q605 1141 693.5 1103.5 Q782 1066 848 1016 L758 895 Q699 938 638 965.5 Q577 993 502 993 Q397 993 348 945.5 Q299 898 299 834 Q299 780 334.5 746.5 Q370 713 426 689 Q482 665 545 641 Q626 610 704 572 Q782 534 833.5 471.5 Q885 409 885 303 Q885 213 838 138 Q791 63 700.5 18 Q610 -27 479 -27 Z" /><glyph glyph-name="t" unicode="t" d="M539 -27 Q360 -27 290.5 75 Q221 177 221 344 L221 961 L55 961 L55 1102 L229 1112 L252 1423 L408 1423 L408 1112 L709 1112 L709 961 L408 961 L408 340 Q408 237 445.5 181 Q483 125 580 125 Q609 125 644 134 Q679 143 707 154 L743 14 Q696 -1 642.5 -14 Q589 -27 539 -27 Z" /><glyph glyph-name="u" unicode="u" d="M512 -27 Q337 -27 255.5 84.5 Q174 196 174 408 L174 1112 L360 1112 L360 430 Q360 275 409.5 205 Q459 135 569 135 Q655 135 723 179.5 Q791 224 870 324 L870 1112 L1057 1112 L1057 0 L901 0 L887 174 L881 174 Q802 83 714.5 28 Q627 -27 512 -27 Z" /><glyph glyph-name="v" unicode="v" d="M428 0 L27 1112 L221 1112 L430 479 Q456 398 482 314 Q508 230 535 152 L543 152 Q567 230 594 314 Q621 398 645 479 L856 1112 L1040 1112 L645 0 L428 0 Z" /><glyph glyph-name="w" unicode="w" d="M365 0 L55 1112 L246 1112 L412 469 Q429 389 445.5 312.5 Q462 236 477 158 L487 158 Q506 236 524 313.5 Q542 391 563 469 L735 1112 L918 1112 L1092 469 Q1112 389 1130.5 312.5 Q1149 236 1169 158 L1178 158 Q1196 236 1212.5 312.5 Q1229 389 1247 469 L1411 1112 L1587 1112 L1288 0 L1063 0 L901 600 Q880 678 862.5 756.5 Q845 835 825 920 L815 920 Q797 835 779 755.5 Q761 676 739 596 L584 0 L365 0 Z" /><glyph glyph-name="x" unicode="x" d="M31 0 L397 580 L59 1112 L260 1112 L410 866 Q436 820 464.5 774 Q493 728 520 682 L528 682 Q554 728 579 774 Q604 820 629 866 L766 1112 L961 1112 L623 561 L989 0 L784 0 L621 260 Q593 311 562.5 361 Q532 411 502 459 L492 459 Q462 411 434 361 Q406 311 377 260 L227 0 L31 0 Z" /><glyph glyph-name="y" unicode="y" d="M207 -479 Q130 -479 76 -457 L113 -307 Q130 -313 152.5 -319.5 Q175 -326 197 -326 Q292 -326 353.5 -257.5 Q415 -189 449 -86 L473 -2 L27 1112 L221 1112 L449 494 Q473 421 501 339.5 Q529 258 555 182 L565 182 Q588 258 612 339 Q636 420 659 494 L858 1112 L1040 1112 L621 -92 Q582 -202 527.5 -289.5 Q473 -377 395 -428 Q317 -479 207 -479 Z" /><glyph glyph-name="z" unicode="z" d="M72 0 L72 100 L657 961 L135 961 L135 1112 L893 1112 L893 1012 L307 152 L913 152 L913 0 L72 0 Z" /><glyph glyph-name="braceleft" unicode="{" d="M522 -348 Q386 -348 320 -284.5 Q254 -221 254 -43 Q254 81 264 181.5 Q274 282 274 397 Q274 442 257.5 483 Q241 524 198.5 550.5 Q156 577 78 578 L78 694 Q156 695 198.5 721.5 Q241 748 257.5 788 Q274 828 274 872 Q274 989 264 1089.5 Q254 1190 254 1315 Q254 1493 320 1556.5 Q386 1620 522 1620 L623 1620 L623 1516 L563 1516 Q471 1516 439.5 1465.5 Q408 1415 408 1305 Q408 1200 414 1103.5 Q420 1007 420 889 Q420 778 389 719.5 Q358 661 283 641 L283 633 Q358 611 389 551.5 Q420 492 420 383 Q420 266 414 169 Q408 72 408 -33 Q408 -143 439.5 -192.5 Q471 -242 563 -242 L623 -242 L623 -348 L522 -348 Z" /><glyph glyph-name="bar" unicode="|" d="M211 -571 L211 1716 L342 1716 L342 -571 L211 -571 Z" /><glyph glyph-name="braceright" unicode="}" d="M70 -348 L70 -242 L129 -242 Q223 -242 254 -192.5 Q285 -143 285 -33 Q285 72 279.5 169 Q274 266 274 383 Q274 492 305 551.5 Q336 611 410 633 L410 641 Q336 661 305 719.5 Q274 778 274 889 Q274 1007 279.5 1103.5 Q285 1200 285 1305 Q285 1415 254 1465.5 Q223 1516 129 1516 L70 1516 L70 1620 L172 1620 Q307 1620 372.5 1556.5 Q438 1493 438 1315 Q438 1190 429 1089.5 Q420 989 420 872 Q420 828 436 788 Q452 748 494.5 721.5 Q537 695 614 694 L614 578 Q537 577 494.5 550.5 Q452 524 436 483 Q420 442 420 397 Q420 282 429 181.5 Q438 81 438 -43 Q438 -221 372.5 -284.5 Q307 -348 172 -348 L70 -348 Z" /><glyph glyph-name="asciitilde" unicode="~" d="M770 588 Q702 588 647.5 617.5 Q593 647 546.5 685.5 Q500 724 455.5 753 Q411 782 362 782 Q313 782 269.5 749.5 Q226 717 186 643 L82 717 Q145 824 219 873 Q293 922 369 922 Q435 922 489 892.5 Q543 863 589.5 825 Q636 787 681 758 Q726 729 774 729 Q823 729 866.5 762 Q910 795 948 868 L1055 793 Q992 685 918 636.5 Q844 588 770 588 Z" /><glyph glyph-name="cid00118" unicode="·" d="M565 602 Q510 602 470 642 Q430 682 430 743 Q430 808 470 848.5 Q510 889 565 889 Q621 889 660.5 848.5 Q700 808 700 743 Q700 682 660.5 642 Q621 602 565 602 Z" /><glyph glyph-name="emdash" unicode="&#x2014;" d="M94 510 L94 641 L1737 641 L1737 510 L94 510 Z" /><glyph glyph-name="ellipsis" unicode="&#x2026;&#x22ef;" d="M207 778 Q207 835 246 874 Q285 913 342 913 Q399 913 438 874 Q477 835 477 778 Q477 721 438 682 Q399 643 342 643 Q285 643 246 682 Q207 721 207 778 ZM889 778 Q889 835 928 874 Q967 913 1024 913 Q1081 913 1120 874 Q1159 835 1159 778 Q1159 721 1120 682 Q1081 643 1024 643 Q967 643 928 682 Q889 721 889 778 ZM1571 778 Q1571 835 1610 874 Q1649 913 1706 913 Q1763 913 1802 874 Q1841 835 1841 778 Q1841 721 1802 682 Q1763 643 1706 643 Q1649 643 1610 682 Q1571 721 1571 778 Z" /><glyph glyph-name="cid01390" unicode="&#x3001;" d="M698 4 L559 -115 Q461 8 338.5 130.5 Q216 253 106 342 L240 459 Q313 399 395.5 321.5 Q478 244 556.5 161.5 Q635 79 698 4 Z" /><glyph glyph-name="cid01391" unicode="&#x3002;" d="M397 500 Q484 500 555.5 458 Q627 416 669 345 Q711 274 711 188 Q711 102 669 31 Q627 -40 555.5 -82.5 Q484 -125 397 -125 Q312 -125 241.5 -82.5 Q171 -40 128.5 31 Q86 102 86 188 Q86 274 128.5 345 Q171 416 241.5 458 Q312 500 397 500 ZM397 -20 Q485 -20 544.5 40.5 Q604 101 604 188 Q604 273 544.5 334 Q485 395 397 395 Q313 395 251.5 334 Q190 273 190 188 Q190 101 251.5 40.5 Q313 -20 397 -20 Z" /><glyph glyph-name="cid01399" unicode="&#x300a;" d="M1210 778 L1651 -139 L1540 -176 L1085 778 L1540 1733 L1651 1696 L1210 778 ZM1534 778 L1974 -139 L1864 -176 L1409 778 L1864 1733 L1974 1696 L1534 778 Z" /><glyph glyph-name="cid01400" unicode="&#x300b;" d="M508 -176 L397 -139 L838 778 L397 1696 L508 1733 L963 778 L508 -176 ZM184 -176 L74 -139 L514 778 L74 1696 L184 1733 L639 778 L184 -176 Z" /><glyph glyph-name="cid01405" unicode="&#x3010;" d="M1364 1733 L1978 1733 L1978 1722 Q1867 1628 1775 1486.5 Q1683 1345 1628 1165.5 Q1573 986 1573 778 Q1573 570 1628 390.5 Q1683 211 1775 69.5 Q1867 -72 1978 -166 L1978 -176 L1364 -176 L1364 1733 Z" /><glyph glyph-name="cid01406" unicode="&#x3011;" d="M684 1733 L684 -176 L70 -176 L70 -166 Q181 -72 273 69.5 Q365 211 420 390.5 Q475 570 475 778 Q475 986 420 1165.5 Q365 1345 273 1486.5 Q181 1628 70 1722 L70 1733 L684 1733 Z" /><glyph glyph-name="cid09831" unicode="&#x2f00;&#x4e00;" d="M98 881 L1958 881 L1958 715 L98 715 L98 881 Z" /><glyph glyph-name="cid09832" unicode="&#x4e01;" d="M1917 1526 L1917 1370 L1169 1370 L1169 90 Q1169 -1 1141 -45 Q1113 -89 1049 -109 Q983 -130 866.5 -134.5 Q750 -139 573 -139 Q564 -102 543.5 -51.5 Q523 -1 500 33 Q595 30 683 28.5 Q771 27 836.5 27.5 Q902 28 930 29 Q967 30 982 43.5 Q997 57 997 92 L997 1370 L131 1370 L131 1526 L1917 1526 Z" /><glyph glyph-name="cid09835" unicode="&#x4e03;" d="M1030 66 L1554 66 Q1622 66 1656 96 Q1690 126 1705 206.5 Q1720 287 1731 438 Q1760 417 1806 396.5 Q1852 376 1884 367 Q1871 199 1842.5 100 Q1814 1 1748.5 -41.5 Q1683 -84 1559 -84 L1024 -84 Q898 -84 826.5 -58 Q755 -32 725.5 34 Q696 100 696 221 L696 842 L133 752 L109 903 L696 997 L696 1677 L856 1677 L856 1022 L1921 1194 L1946 1040 L856 868 L856 219 Q856 157 869.5 123.5 Q883 90 920 78 Q957 66 1030 66 Z" /><glyph glyph-name="cid09840" unicode="&#x4e07;" d="M1915 1411 L844 1411 Q841 1310 835.5 1204.5 Q830 1099 819 993 L1729 993 Q1729 993 1728.5 964 Q1728 935 1726 920 Q1713 672 1699 498 Q1685 324 1668 210 Q1651 96 1629 29.5 Q1607 -37 1577 -70 Q1542 -108 1501.5 -123.5 Q1461 -139 1403 -143 Q1345 -148 1246.5 -145.5 Q1148 -143 1042 -135 Q1041 -101 1026.5 -59.5 Q1012 -18 989 14 Q1104 2 1204 0 Q1304 -2 1346 -2 Q1381 -2 1402 3 Q1423 8 1442 25 Q1473 52 1495.5 142.5 Q1518 233 1535 404 Q1552 575 1567 846 L801 846 Q771 645 704 457 Q637 269 512.5 110 Q388 -49 186 -162 Q168 -131 137 -98 Q106 -65 76 -43 Q246 47 356.5 173 Q467 299 531.5 448.5 Q596 598 627.5 760.5 Q659 923 669.5 1088.5 Q680 1254 684 1411 L133 1411 L133 1559 L1915 1559 L1915 1411 Z" /><glyph glyph-name="cid09841" unicode="&#x4e08;" d="M1915 1169 L1319 1169 Q1305 896 1253 674 Q1201 452 1061 283 Q1382 50 1946 -14 Q1921 -40 1894.5 -82 Q1868 -124 1855 -158 Q1280 -78 952 170 Q831 66 655 -12.5 Q479 -91 231 -143 Q221 -113 195.5 -74.5 Q170 -36 145 -10 Q383 37 551 108 Q719 179 829 274 Q687 416 587.5 606.5 Q488 797 422 1038 L565 1073 Q621 857 712 684.5 Q803 512 938 383 Q1059 532 1102.5 728 Q1146 924 1157 1169 L137 1169 L137 1317 L1163 1317 Q1165 1403 1165 1495 Q1165 1587 1165 1683 L1329 1683 Q1329 1588 1328 1496 Q1327 1404 1325 1317 L1915 1317 L1915 1169 Z" /><glyph glyph-name="cid09842" unicode="&#x4e09;" d="M258 1516 L1794 1516 L1794 1364 L258 1364 L258 1516 ZM389 852 L1634 852 L1634 698 L389 698 L389 852 ZM141 145 L1905 145 L1905 -8 L141 -8 L141 145 Z" /><glyph glyph-name="cid09843" unicode="&#x4e0a;" d="M1036 92 L1937 92 L1937 -59 L113 -59 L113 92 L877 92 L877 1681 L1036 1681 L1036 1055 L1798 1055 L1798 903 L1036 903 L1036 92 Z" /><glyph glyph-name="cid09844" unicode="&#x4e0b;" d="M1929 1411 L1065 1411 L1065 1047 L1092 1077 Q1183 1033 1284.5 979 Q1386 925 1485.5 867.5 Q1585 810 1671.5 754.5 Q1758 699 1819 653 L1712 516 Q1642 573 1535 644.5 Q1428 716 1305 788.5 Q1182 861 1065 924 L1065 -154 L903 -154 L903 1411 L121 1411 L121 1563 L1929 1563 L1929 1411 Z" /><glyph glyph-name="cid09846" unicode="&#x4e0d;&#xf967;" d="M1898 1417 L1249 1417 Q1215 1360 1178.5 1304.5 Q1142 1249 1104 1192 L1104 -152 L942 -152 L942 987 Q787 810 600.5 656.5 Q414 503 201 391 Q184 420 152.5 459 Q121 498 98 524 Q300 626 480 767.5 Q660 909 806.5 1075.5 Q953 1242 1055 1417 L150 1417 L150 1569 L1898 1569 L1898 1417 ZM1145 977 L1257 1075 Q1347 1018 1445.5 948.5 Q1544 879 1640 806.5 Q1736 734 1818 664.5 Q1900 595 1956 537 L1835 420 Q1780 478 1700 549.5 Q1620 621 1526 697 Q1432 773 1333.5 845 Q1235 917 1145 977 Z" /><glyph glyph-name="cid09848" unicode="&#x4e0e;" d="M1391 489 L1391 342 L125 342 L125 489 L1391 489 ZM537 920 L1817 920 Q1817 920 1815.5 890.5 Q1814 861 1810 846 Q1782 554 1752 370.5 Q1722 187 1686 86 Q1650 -15 1604 -59 Q1565 -99 1521.5 -113.5 Q1478 -128 1413 -131 Q1358 -134 1257 -132.5 Q1156 -131 1049 -123 Q1046 -89 1030 -46.5 Q1014 -4 991 27 Q1111 16 1217.5 14 Q1324 12 1368 12 Q1406 12 1431 16 Q1456 20 1473 37 Q1531 81 1572 252.5 Q1613 424 1649 776 L469 776 L342 778 Q366 863 392 972.5 Q418 1082 444.5 1203 Q471 1324 494.5 1444 Q518 1564 537 1669 L690 1653 Q679 1601 669 1544.5 Q659 1488 647 1432 L1786 1432 L1786 1286 L618 1286 Q597 1189 577 1095.5 Q557 1002 537 920 Z" /><glyph glyph-name="cid09854" unicode="&#x4e11;" d="M1466 707 L829 707 Q813 524 796 354.5 Q779 185 762 51 L1419 51 Q1433 188 1445 356.5 Q1457 525 1466 707 ZM1501 1432 L887 1432 Q878 1299 866 1151.5 Q854 1004 842 856 L1477 856 Q1484 1002 1490.5 1149 Q1497 1296 1501 1432 ZM1579 51 L1948 51 L1948 -98 L104 -98 L104 51 L604 51 Q621 186 640 355.5 Q659 525 676 707 L281 707 L281 856 L690 856 Q719 1163 731 1432 L236 1432 L236 1581 L1661 1581 Q1655 1401 1646 1197 Q1637 993 1626.5 787 Q1616 581 1604 391.5 Q1592 202 1579 51 Z" /><glyph glyph-name="cid09857" unicode="&#x4e13;" d="M1894 950 L799 950 Q779 890 760 833.5 Q741 777 723 725 L1606 725 L1632 733 L1747 664 Q1636 550 1491 407.5 Q1346 265 1204 131 Q1303 90 1388.5 50 Q1474 10 1538 -29 L1446 -160 Q1371 -114 1263.5 -62 Q1156 -10 1031 42 Q906 94 777 140.5 Q648 187 530 221 L616 332 Q718 304 829.5 267 Q941 230 1053 188 Q1156 285 1263 389 Q1370 493 1456 582 L506 582 Q537 658 570.5 752.5 Q604 847 639 950 L123 950 L123 1098 L686 1098 Q706 1158 725.5 1218.5 Q745 1279 764 1339 L287 1339 L287 1485 L807 1485 Q824 1543 840 1599.5 Q856 1656 868 1710 L1030 1710 Q1015 1656 998 1599.5 Q981 1543 963 1485 L1747 1485 L1747 1339 L922 1339 Q902 1279 883 1218.5 Q864 1158 846 1098 L1894 1098 L1894 950 Z" /><glyph glyph-name="cid09858" unicode="&#x4e14;" d="M588 440 L588 80 L1479 80 L1479 440 L588 440 ZM1479 1446 L588 1446 L588 1094 L1479 1094 L1479 1446 ZM1479 588 L1479 950 L588 950 L588 588 L1479 588 ZM1634 80 L1933 80 L1933 -70 L117 -70 L117 80 L438 80 L438 1593 L1634 1593 L1634 80 Z" /><glyph glyph-name="cid09862" unicode="&#x4e16;" d="M1479 1057 L1087 1057 L1087 551 L1479 551 L1479 1057 ZM1634 410 L938 410 L938 1057 L565 1057 L565 125 L1882 125 L1882 -25 L408 -25 L408 1057 L111 1057 L111 1204 L408 1204 L408 1657 L565 1657 L565 1204 L938 1204 L938 1704 L1087 1704 L1087 1204 L1479 1204 L1479 1679 L1634 1679 L1634 1204 L1939 1204 L1939 1057 L1634 1057 L1634 410 Z" /><glyph glyph-name="cid09866" unicode="&#x4e18;" d="M586 825 L586 100 L1341 100 L1341 825 L586 825 ZM1495 100 L1942 100 L1942 -49 L109 -49 L109 100 L432 100 L432 1485 Q584 1492 747 1506 Q910 1520 1068 1541 Q1226 1562 1363 1589.5 Q1500 1617 1599 1653 L1692 1522 Q1554 1475 1369.5 1441.5 Q1185 1408 981.5 1386 Q778 1364 586 1352 L586 975 L1839 975 L1839 825 L1495 825 L1495 100 Z" /><glyph glyph-name="cid09867" unicode="&#x4e19;" d="M1096 1425 L1096 1122 L1831 1122 L1831 45 Q1831 -26 1812 -65 Q1793 -104 1739 -123 Q1687 -141 1594 -145.5 Q1501 -150 1366 -150 Q1360 -117 1344 -73 Q1328 -29 1311 2 Q1418 -3 1510 -2.5 Q1602 -2 1632 0 Q1661 2 1671 11 Q1681 20 1681 45 L1681 977 L1090 977 Q1080 895 1059 813 Q1156 741 1261 657.5 Q1366 574 1458 493 Q1550 412 1610 346 L1501 231 Q1449 292 1369 367.5 Q1289 443 1196 522.5 Q1103 602 1012 674 Q955 543 839.5 419 Q724 295 526 190 Q509 217 475 251.5 Q441 286 414 307 Q610 401 717 514.5 Q824 628 869.5 747 Q915 866 928 977 L373 977 L373 -156 L221 -156 L221 1122 L934 1122 L934 1425 L145 1425 L145 1575 L1903 1575 L1903 1425 L1096 1425 Z" /><glyph glyph-name="cid09868" unicode="&#x4e1a;" d="M1743 1241 L1880 1174 Q1831 1057 1771.5 929.5 Q1712 802 1649 682.5 Q1586 563 1528 469 L1403 537 Q1459 629 1523 750.5 Q1587 872 1645 1000 Q1703 1128 1743 1241 ZM604 543 L453 485 Q428 575 382.5 699 Q337 823 282 956 Q227 1089 174 1204 L315 1247 Q370 1134 426 1004 Q482 874 529.5 753 Q577 632 604 543 ZM1350 100 L1921 100 L1921 -49 L131 -49 L131 100 L700 100 L700 1688 L852 1688 L852 100 L1198 100 L1198 1686 L1350 1686 L1350 100 Z" /><glyph glyph-name="cid09869" unicode="&#x4e1b;" d="M1321 1688 L1483 1677 Q1475 1564 1465.5 1458.5 Q1456 1353 1442 1253 Q1468 1129 1509 995 Q1550 861 1609 732 Q1668 603 1748.5 492 Q1829 381 1933 303 Q1909 282 1875 241 Q1841 200 1823 168 Q1714 259 1630.5 383 Q1547 507 1486 647 Q1425 787 1384 928 Q1325 680 1220.5 483.5 Q1116 287 948 139 Q930 162 889.5 200 Q849 238 821 258 Q1001 399 1103.5 607.5 Q1206 816 1254.5 1087 Q1303 1358 1321 1688 ZM1038 616 L920 506 Q878 595 803 716 Q728 837 643 952 Q594 703 505 504.5 Q416 306 268 156 Q250 177 209 213.5 Q168 250 139 270 Q297 418 384.5 629 Q472 840 511.5 1107.5 Q551 1375 565 1694 L725 1683 Q717 1541 705 1407.5 Q693 1274 678 1153 Q748 1067 817 970.5 Q886 874 944 781.5 Q1002 689 1038 616 ZM121 -94 L121 61 L1931 61 L1931 -94 L121 -94 Z" /><glyph glyph-name="cid09870" unicode="&#x4e1c;" d="M532 535 L682 496 Q610 334 501.5 182.5 Q393 31 283 -74 Q261 -52 221 -22 Q181 8 154 27 Q266 120 368 255 Q470 390 532 535 ZM1782 698 L1192 698 L1192 51 Q1192 -16 1174 -53 Q1156 -90 1110 -109 Q1062 -129 984 -134 Q906 -139 797 -139 Q792 -107 775 -61.5 Q758 -16 739 16 Q828 13 901.5 13 Q975 13 999 14 Q1022 16 1031 24 Q1040 32 1040 53 L1040 698 L590 698 Q499 698 442 690.5 Q385 683 371 668 Q363 694 346 743.5 Q329 793 313 825 Q349 835 384 876.5 Q419 918 467 985 Q493 1020 545.5 1104 Q598 1188 659 1298 L166 1298 L166 1444 L735 1444 Q771 1511 803 1582.5 Q835 1654 864 1724 L1022 1657 Q999 1605 973 1550.5 Q947 1496 920 1444 L1868 1444 L1868 1298 L842 1298 Q774 1176 701.5 1061 Q629 946 557 846 L1040 846 L1040 1145 L1192 1145 L1192 846 L1784 846 L1782 698 ZM1360 475 L1485 539 Q1565 462 1649 370 Q1733 278 1804.5 188 Q1876 98 1919 27 L1782 -47 Q1742 23 1673 114 Q1604 205 1522 300 Q1440 395 1360 475 Z" /><glyph glyph-name="cid09871" unicode="&#x4e1d;" d="M1274 477 L1868 506 Q1862 474 1858.5 434.5 Q1855 395 1855 369 Q1615 356 1470 347 Q1325 338 1247 331 Q1169 324 1134 318.5 Q1099 313 1079 307 Q1073 329 1058.5 373 Q1044 417 1032 446 Q1068 456 1112 495.5 Q1156 535 1214 596 Q1247 627 1311.5 702 Q1376 777 1454 879 Q1302 869 1223 862.5 Q1144 856 1110.5 850.5 Q1077 845 1061 838 Q1055 861 1040.5 905.5 Q1026 950 1012 979 Q1041 985 1071.5 1019.5 Q1102 1054 1139 1108 Q1158 1134 1195.5 1194.5 Q1233 1255 1279.5 1338 Q1326 1421 1372.5 1516.5 Q1419 1612 1456 1708 L1597 1651 Q1518 1477 1420 1307.5 Q1322 1138 1221 1001 L1554 1014 Q1607 1086 1657 1164 Q1707 1242 1753 1319 L1886 1247 Q1751 1032 1593 834.5 Q1435 637 1274 477 ZM440 469 L971 498 Q966 465 962.5 426 Q959 387 961 362 Q740 348 607 338.5 Q474 329 403 322 Q332 315 300.5 309 Q269 303 252 295 Q246 316 230 361.5 Q214 407 199 436 Q237 445 279.5 486 Q322 527 379 592 Q410 623 469 695.5 Q528 768 600 866 Q456 857 381 850 Q306 843 274 837 Q242 831 225 825 Q219 848 204.5 892.5 Q190 937 176 967 Q205 973 235.5 1008.5 Q266 1044 301 1098 Q320 1124 357 1185 Q394 1246 439.5 1330 Q485 1414 530 1510.5 Q575 1607 610 1704 L754 1647 Q675 1471 579 1299 Q483 1127 383 989 L694 1001 Q748 1080 799 1163.5 Q850 1247 895 1331 L1032 1262 Q902 1043 748.5 838 Q595 633 440 469 ZM113 104 L1929 104 L1929 -37 L113 -37 L113 104 Z" /><glyph glyph-name="cid09879" unicode="&#x4e22;" d="M1919 780 L1919 637 L903 637 L973 608 Q873 473 763 345 Q653 217 543 113 L1526 182 Q1470 256 1412.5 329 Q1355 402 1298 467 L1438 524 Q1522 433 1608 324.5 Q1694 216 1765.5 110 Q1837 4 1878 -80 L1729 -147 Q1709 -104 1679 -53 Q1649 -2 1614 53 Q1278 27 1054 9.5 Q830 -8 692 -20 Q554 -32 478 -40.5 Q402 -49 365 -56.5 Q328 -64 305 -74 L305 -72 Q299 -47 283.5 1 Q268 49 256 80 Q287 84 324 113 Q361 142 408 186 Q438 212 502.5 280 Q567 348 644.5 441.5 Q722 535 793 637 L127 637 L127 780 L946 780 L946 1055 L295 1055 L295 1200 L946 1200 L946 1452 Q776 1438 605.5 1430 Q435 1422 276 1417 Q273 1448 261.5 1489.5 Q250 1531 238 1559 Q423 1565 622.5 1576.5 Q822 1588 1014 1605.5 Q1206 1623 1373.5 1647 Q1541 1671 1663 1702 L1778 1569 Q1638 1535 1463 1509 Q1288 1483 1098 1466 L1098 1200 L1751 1200 L1751 1055 L1098 1055 L1098 780 L1919 780 Z" /><glyph glyph-name="cid09881" unicode="&#x4e24;" d="M1204 1143 L1204 1423 L834 1423 L834 1143 L1204 1143 ZM1921 1423 L1354 1423 L1354 1143 L1837 1143 L1837 37 Q1837 -34 1818 -73.5 Q1799 -113 1745 -131 Q1693 -150 1598 -154 Q1503 -158 1368 -158 Q1362 -125 1346.5 -80.5 Q1331 -36 1313 -4 Q1423 -10 1515 -10 Q1607 -10 1636 -8 Q1666 -7 1677 3 Q1688 13 1688 41 L1688 999 L1352 999 Q1349 952 1344 900.5 Q1339 849 1331 797 Q1395 724 1459.5 644 Q1524 564 1577.5 489 Q1631 414 1663 356 L1571 240 Q1528 318 1452.5 423.5 Q1377 529 1294 631 Q1261 499 1193.5 371.5 Q1126 244 1016 133 Q999 156 967 188.5 Q935 221 907 240 Q1025 349 1087 480 Q1149 611 1173 745.5 Q1197 880 1202 999 L831 999 Q828 950 823.5 897 Q819 844 811 791 Q872 717 931.5 637 Q991 557 1022 500 L932 379 Q879 484 772 621 Q738 492 672 367 Q606 242 496 133 Q480 156 448.5 188.5 Q417 221 391 240 Q507 349 568 480 Q629 611 653 745.5 Q677 880 682 999 L365 999 L365 -158 L215 -158 L215 1143 L684 1143 L684 1423 L129 1423 L129 1571 L1921 1571 L1921 1423 Z" /><glyph glyph-name="cid09882" unicode="&#x4e25;" d="M883 1464 L883 932 L1159 932 L1159 1464 L883 1464 ZM1911 932 L1911 797 L387 797 L387 596 Q387 484 371.5 349.5 Q356 215 312 82 Q268 -51 184 -158 Q166 -135 127.5 -100.5 Q89 -66 68 -53 Q143 44 179.5 158 Q216 272 227 386.5 Q238 501 238 598 L238 932 L733 932 L733 1464 L221 1464 L221 1597 L1847 1597 L1847 1464 L1309 1464 L1309 932 L1911 932 ZM616 1026 L479 977 Q461 1055 412.5 1161.5 Q364 1268 305 1354 L434 1401 Q496 1315 546 1210.5 Q596 1106 616 1026 ZM1522 975 L1399 1018 Q1433 1069 1470.5 1137.5 Q1508 1206 1542 1277.5 Q1576 1349 1597 1407 L1753 1356 Q1699 1257 1636.5 1152 Q1574 1047 1522 975 Z" /><glyph glyph-name="cid09884" unicode="&#x4e27;" d="M1692 641 L1810 555 Q1714 477 1594 397.5 Q1474 318 1368 260 Q1485 160 1632.5 91.5 Q1780 23 1960 -12 Q1937 -37 1910 -76 Q1883 -115 1866 -145 Q1509 -59 1276.5 147.5 Q1044 354 922 678 L606 678 L606 55 L1098 162 Q1093 130 1090.5 85.5 Q1088 41 1090 18 Q881 -30 754 -60 Q627 -90 559 -107.5 Q491 -125 460 -136 Q429 -147 412 -158 Q406 -129 387 -87 Q368 -45 348 -18 Q379 -6 414 25.5 Q449 57 449 119 L449 678 L119 678 L119 819 L944 819 L944 1346 L193 1346 L193 1485 L944 1485 L944 1714 L1094 1714 L1094 1485 L1864 1485 L1864 1346 L1094 1346 L1094 819 L1935 819 L1935 678 L1069 678 Q1109 584 1160 501.5 Q1211 419 1276 348 Q1347 389 1423 439.5 Q1499 490 1569 542.5 Q1639 595 1692 641 ZM358 1233 L487 1288 Q530 1236 575.5 1174 Q621 1112 659 1052 Q697 992 719 946 L580 881 Q560 928 524.5 989.5 Q489 1051 445 1115 Q401 1179 358 1233 ZM1395 870 L1278 924 Q1319 973 1365 1038 Q1411 1103 1453 1170.5 Q1495 1238 1524 1294 L1675 1235 Q1609 1140 1534 1040 Q1459 940 1395 870 Z" /><glyph glyph-name="cid09889" unicode="&#x4e2a;" d="M944 -156 L944 1112 L1100 1112 L1100 -156 L944 -156 ZM1036 1714 L1169 1651 Q1156 1628 1142.5 1605 Q1129 1582 1114 1561 Q1309 1329 1524.5 1174.5 Q1740 1020 1976 905 Q1946 882 1914.5 843.5 Q1883 805 1866 770 Q1638 888 1432.5 1044.5 Q1227 1201 1026 1442 Q862 1231 644 1058.5 Q426 886 193 772 Q174 804 142.5 843.5 Q111 883 80 909 Q272 992 452.5 1115 Q633 1238 783.5 1390.5 Q934 1543 1036 1714 Z" /><glyph glyph-name="cid09893" unicode="&#x4e2d;" d="M1098 657 L1686 657 L1686 1200 L1098 1200 L1098 657 ZM354 657 L940 657 L940 1200 L354 1200 L354 657 ZM1098 1350 L1841 1350 L1841 391 L1686 391 L1686 508 L1098 508 L1098 -156 L940 -156 L940 508 L354 508 L354 381 L205 381 L205 1350 L940 1350 L940 1714 L1098 1714 L1098 1350 Z" /><glyph glyph-name="cid09898" unicode="&#x4e30;" d="M1935 485 L1935 336 L1102 336 L1102 -152 L944 -152 L944 336 L117 336 L117 485 L944 485 L944 815 L293 815 L293 961 L944 961 L944 1264 L193 1264 L193 1413 L944 1413 L944 1712 L1102 1712 L1102 1413 L1853 1413 L1853 1264 L1102 1264 L1102 961 L1759 961 L1759 815 L1102 815 L1102 485 L1935 485 Z" /><glyph glyph-name="cid09902" unicode="&#x4e32;&#xf905;" d="M1098 317 L1675 317 L1675 612 L1098 612 L1098 317 ZM375 317 L938 317 L938 612 L375 612 L375 317 ZM455 1059 L938 1059 L938 1341 L455 1341 L455 1059 ZM1585 1341 L1098 1341 L1098 1059 L1585 1059 L1585 1341 ZM1098 754 L1837 754 L1837 98 L1675 98 L1675 180 L1098 180 L1098 -156 L938 -156 L938 180 L375 180 L375 94 L221 94 L221 754 L938 754 L938 924 L301 924 L301 1477 L938 1477 L938 1712 L1098 1712 L1098 1477 L1747 1477 L1747 924 L1098 924 L1098 754 Z" /><glyph glyph-name="cid09904" unicode="&#x4e34;" d="M180 113 L180 1466 L324 1466 L324 113 L180 113 ZM518 -141 L518 1686 L668 1686 L668 -141 L518 -141 ZM1309 629 L1022 629 L1022 94 L1309 94 L1309 629 ZM1733 94 L1733 629 L1450 629 L1450 94 L1733 94 ZM874 -156 L874 774 L1886 774 L1886 -147 L1733 -147 L1733 -47 L1022 -47 L1022 -156 L874 -156 ZM1640 956 L1538 848 Q1500 889 1441.5 944.5 Q1383 1000 1316.5 1057.5 Q1250 1115 1190 1163 L1290 1253 Q1352 1206 1418.5 1152 Q1485 1098 1544 1046.5 Q1603 995 1640 956 ZM1157 1475 L1939 1475 L1939 1327 L1096 1327 Q1042 1209 979 1105 Q916 1001 846 920 Q826 936 785 963 Q744 990 715 1004 Q838 1133 930 1322.5 Q1022 1512 1077 1722 L1227 1694 Q1211 1638 1193.5 1582.5 Q1176 1527 1157 1475 Z" /><glyph glyph-name="cid09910" unicode="&#x4e38;" d="M1591 25 L1751 25 Q1778 25 1791 53.5 Q1804 82 1810 161.5 Q1816 241 1819 393 Q1846 372 1888 352.5 Q1930 333 1962 326 Q1955 155 1937 57 Q1919 -41 1879 -82 Q1839 -123 1765 -123 L1569 -123 Q1460 -123 1419 -75.5 Q1378 -28 1378 111 L1378 1126 L913 1126 Q903 999 883 874.5 Q863 750 829 633 Q937 559 1030 486 Q1123 413 1188 348 L1071 225 Q1017 281 941.5 345.5 Q866 410 778 477 Q700 282 559.5 118.5 Q419 -45 190 -162 Q174 -133 139.5 -98 Q105 -63 78 -43 Q304 66 438.5 224.5 Q573 383 645 573 Q551 638 457 698 Q363 758 272 807 L377 913 Q452 873 532.5 824.5 Q613 776 694 725 Q740 919 756 1126 L182 1126 L182 1276 L766 1276 Q771 1383 771.5 1490.5 Q772 1598 772 1706 L930 1706 Q930 1598 928 1490.5 Q926 1383 922 1276 L1532 1276 L1532 111 Q1532 55 1542.5 40 Q1553 25 1591 25 Z" /><glyph glyph-name="cid09912" unicode="&#x4e39;&#xf95e;" d="M766 1274 L872 1360 Q944 1309 1021 1245 Q1098 1181 1165.5 1117.5 Q1233 1054 1276 1004 L1161 907 Q1120 957 1053.5 1022 Q987 1087 911.5 1153.5 Q836 1220 766 1274 ZM559 823 L1505 823 L1505 1466 L561 1466 L561 918 Q561 894 561 871 Q561 848 559 823 ZM1935 823 L1935 678 L1659 678 L1659 45 Q1659 -33 1635.5 -74 Q1612 -115 1559 -133 Q1503 -150 1403.5 -154 Q1304 -158 1147 -158 Q1141 -127 1124.5 -83 Q1108 -39 1090 -10 Q1209 -15 1311.5 -14.5 Q1414 -14 1448 -12 Q1479 -11 1492 1 Q1505 13 1505 45 L1505 678 L551 678 Q539 532 502 381.5 Q465 231 390.5 91 Q316 -49 190 -162 Q175 -140 139.5 -105 Q104 -70 78 -53 Q191 49 258 170 Q325 291 357.5 420.5 Q390 550 401 678 L117 678 L117 823 L408 823 Q409 848 409.5 872.5 Q410 897 410 920 L410 1606 L1659 1606 L1659 823 L1935 823 Z" /><glyph glyph-name="cid09913" unicode="&#x4e3a;" d="M690 1356 L551 1288 Q522 1351 460.5 1439 Q399 1527 338 1597 L469 1655 Q530 1587 593 1502 Q656 1417 690 1356 ZM989 1223 L1839 1223 Q1839 1223 1838 1191.5 Q1837 1160 1837 1143 Q1825 838 1812.5 625.5 Q1800 413 1785 276 Q1770 139 1749 61 Q1728 -17 1698 -53 Q1662 -95 1623.5 -112 Q1585 -129 1528 -133 Q1476 -138 1386 -136.5 Q1296 -135 1204 -129 Q1201 -95 1186.5 -51 Q1172 -7 1151 29 Q1252 18 1341 16 Q1430 14 1468 14 Q1499 14 1519.5 20.5 Q1540 27 1556 45 Q1587 76 1609 185.5 Q1631 295 1647 510 Q1663 725 1677 1071 L975 1071 Q956 922 912 765.5 Q868 609 784.5 453 Q701 297 567.5 149.5 Q434 2 238 -129 Q219 -101 183.5 -69 Q148 -37 119 -18 Q364 141 508 325 Q652 509 723.5 700 Q795 891 819 1071 L176 1071 L176 1223 L836 1223 Q840 1287 842 1348.5 Q844 1410 844 1468 L844 1708 L995 1708 L995 1466 Q995 1352 989 1223 ZM1432 432 L1298 358 Q1273 412 1227.5 482 Q1182 552 1128 625 Q1074 698 1022 760 L1147 821 Q1201 762 1256.5 692 Q1312 622 1358.5 553.5 Q1405 485 1432 432 Z" /><glyph glyph-name="cid09914" unicode="&#x4e3b;" d="M1104 59 L1933 59 L1933 -90 L123 -90 L123 59 L942 59 L942 561 L311 561 L311 709 L942 709 L942 1157 L217 1157 L217 1307 L1116 1307 Q1076 1354 1018 1409.5 Q960 1465 894.5 1520 Q829 1575 768 1620 L891 1706 Q956 1659 1028 1600.5 Q1100 1542 1163 1483 Q1226 1424 1266 1376 L1169 1307 L1831 1307 L1831 1157 L1104 1157 L1104 709 L1747 709 L1747 561 L1104 561 L1104 59 Z" /><glyph glyph-name="cid09917" unicode="&#x4e3d;" d="M928 1233 L928 31 Q928 -29 914 -63.5 Q900 -98 860 -117 Q822 -135 761 -140 Q700 -145 606 -143 Q603 -114 590 -72 Q577 -30 563 2 Q625 -1 677 -1.5 Q729 -2 745 0 Q778 0 778 33 L778 1094 L371 1094 L371 -156 L227 -156 L227 1233 L928 1233 ZM733 459 L608 403 Q590 459 558 530.5 Q526 602 488.5 677 Q451 752 414 817 L532 860 Q569 798 607.5 725 Q646 652 679.5 582 Q713 512 733 459 ZM1837 1233 L1837 27 Q1837 -35 1822.5 -68.5 Q1808 -102 1769 -121 Q1730 -141 1665 -144 Q1600 -147 1503 -147 Q1499 -117 1486.5 -76 Q1474 -35 1458 -4 Q1524 -7 1580 -6.5 Q1636 -6 1653 -6 Q1688 -6 1688 27 L1688 1094 L1251 1094 L1251 -156 L1108 -156 L1108 1233 L1837 1233 ZM1630 449 L1511 393 Q1490 446 1455.5 516 Q1421 586 1381.5 659 Q1342 732 1307 795 L1419 842 Q1458 779 1498.5 707.5 Q1539 636 1574 568 Q1609 500 1630 449 ZM117 1589 L1933 1589 L1933 1442 L117 1442 L117 1589 Z" /><glyph glyph-name="cid09919" unicode="&#x4e3e;" d="M1133 1409 L997 1348 Q974 1412 923 1503 Q872 1594 815 1669 L942 1724 Q997 1652 1051.5 1563 Q1106 1474 1133 1409 ZM1100 637 L1100 387 L1868 387 L1868 242 L1100 242 L1100 -160 L948 -160 L948 242 L197 242 L197 387 L948 387 L948 637 L483 637 L483 780 L948 780 L948 1030 L1100 1030 L1100 780 L1581 780 L1581 637 L1100 637 ZM1931 1174 L1444 1174 Q1541 1037 1686 920.5 Q1831 804 1987 741 Q1960 720 1930.5 684.5 Q1901 649 1884 618 Q1768 674 1657 760.5 Q1546 847 1451 953 Q1356 1059 1288 1174 L772 1174 Q707 1051 611.5 941 Q516 831 402.5 744 Q289 657 168 602 Q151 630 122 664.5 Q93 699 70 719 Q231 785 377.5 906.5 Q524 1028 616 1174 L121 1174 L121 1313 L535 1313 Q504 1374 445 1457 Q386 1540 328 1606 L457 1667 Q520 1601 583 1517 Q646 1433 678 1368 L569 1313 L1303 1313 Q1345 1363 1392.5 1429 Q1440 1495 1483 1563 Q1526 1631 1554 1688 L1714 1634 Q1659 1553 1594.5 1467.5 Q1530 1382 1470 1313 L1931 1313 L1931 1174 Z" /><glyph glyph-name="cid09927" unicode="&#x4e43;" d="M1323 856 L1825 856 Q1825 856 1824.5 826.5 Q1824 797 1823 780 Q1808 513 1792.5 347 Q1777 181 1754.5 92 Q1732 3 1696 -33 Q1660 -73 1618.5 -87.5 Q1577 -102 1516 -106 Q1460 -111 1360.5 -108.5 Q1261 -106 1155 -100 Q1150 -65 1133 -20.5 Q1116 24 1092 57 Q1208 47 1311.5 44 Q1415 41 1458 41 Q1492 41 1515 45.5 Q1538 50 1554 66 Q1593 99 1616.5 246 Q1640 393 1657 707 L1100 707 Q1133 801 1169 921.5 Q1205 1042 1240 1172.5 Q1275 1303 1305 1425 L688 1425 L688 1364 Q688 1242 680 1095.5 Q672 949 645.5 789 Q619 629 564.5 465.5 Q510 302 418 143.5 Q326 -15 186 -158 Q168 -133 131.5 -95.5 Q95 -58 68 -37 Q233 129 327.5 315.5 Q422 502 466 690 Q510 878 522.5 1051 Q535 1224 535 1364 L535 1425 L205 1425 L205 1573 L1507 1573 Q1482 1460 1450.5 1334.5 Q1419 1209 1386.5 1086 Q1354 963 1323 856 Z" /><glyph glyph-name="cid09929" unicode="&#x4e45;" d="M1290 1391 L1399 1341 Q1363 1199 1316 1068 Q1269 937 1212 819 Q1282 635 1394 470.5 Q1506 306 1652.5 179 Q1799 52 1972 -20 Q1945 -42 1913.5 -82.5 Q1882 -123 1864 -154 Q1619 -38 1431 173.5 Q1243 385 1120 653 Q947 365 713.5 161.5 Q480 -42 217 -162 Q200 -133 164 -91 Q128 -49 100 -29 Q348 77 564.5 250.5 Q781 424 945 668.5 Q1109 913 1200 1231 L666 1231 Q570 1050 456 896 Q342 742 213 627 Q191 648 149 682.5 Q107 717 78 737 Q284 903 441.5 1159.5 Q599 1416 694 1712 L854 1675 Q829 1600 800.5 1526.5 Q772 1453 739 1382 L1262 1382 L1290 1391 Z" /><glyph glyph-name="cid09934" unicode="&#x4e48;" d="M907 1690 L1065 1632 Q965 1475 832.5 1312.5 Q700 1150 550.5 1001 Q401 852 250 735 Q228 760 193.5 793 Q159 826 133 846 Q282 952 429 1095 Q576 1238 700.5 1392.5 Q825 1547 907 1690 ZM1931 -53 L1788 -133 Q1766 -87 1736 -30.5 Q1706 26 1671 84 Q1373 58 1158 40 Q943 22 796.5 10 Q650 -2 557 -10.5 Q464 -19 410.5 -25 Q357 -31 328.5 -36.5 Q300 -42 281 -49 Q273 -23 253 25 Q233 73 215 106 Q263 117 330 169 Q397 221 489 305 Q540 347 637 443 Q734 539 856.5 672 Q979 805 1108.5 962.5 Q1238 1120 1354 1286 L1509 1212 Q1274 894 1024.5 622 Q775 350 530 139 L1581 223 Q1513 323 1440.5 422.5 Q1368 522 1298 608 L1434 676 Q1529 561 1625.5 429.5 Q1722 298 1802.5 171.5 Q1883 45 1931 -53 Z" /><glyph glyph-name="cid09936" unicode="&#x4e49;" d="M1188 1233 L1049 1176 Q1031 1242 998 1328 Q965 1414 925.5 1503.5 Q886 1593 848 1671 L979 1720 Q1018 1642 1058.5 1554.5 Q1099 1467 1133 1383 Q1167 1299 1188 1233 ZM1618 1563 L1774 1513 Q1665 1203 1512 934.5 Q1359 666 1141 444 Q1316 289 1521.5 171.5 Q1727 54 1964 -18 Q1936 -43 1906 -83 Q1876 -123 1860 -156 Q1617 -76 1409 47.5 Q1201 171 1026 334 Q854 182 641.5 59.5 Q429 -63 166 -156 Q152 -126 127.5 -88.5 Q103 -51 82 -25 Q337 60 544.5 176.5 Q752 293 920 440 Q721 646 567.5 897 Q414 1148 305 1434 L444 1477 Q544 1214 691.5 978 Q839 742 1032 549 Q1240 758 1382 1014.5 Q1524 1271 1618 1563 Z" /><glyph glyph-name="cid09939" unicode="&#x4e4b;" d="M1206 1391 L1067 1311 Q1047 1355 1011.5 1414.5 Q976 1474 934.5 1537.5 Q893 1601 854 1655 L985 1722 Q1026 1670 1069.5 1609.5 Q1113 1549 1149.5 1491.5 Q1186 1434 1206 1391 ZM1659 1319 L1774 1241 Q1679 1101 1551 955 Q1423 809 1273.5 669 Q1124 529 965 405 Q806 281 649 184 Q662 175 674.5 166 Q687 157 702 147 Q799 86 927 68.5 Q1055 51 1227 51 Q1346 51 1479 56 Q1612 61 1739 69.5 Q1866 78 1964 88 Q1950 59 1935.5 8.5 Q1921 -42 1919 -76 Q1862 -80 1774.5 -84 Q1687 -88 1587 -91 Q1487 -94 1390.5 -96 Q1294 -98 1221 -98 Q1036 -98 904.5 -75 Q773 -52 672 12 Q609 52 561 91.5 Q513 131 479 131 Q430 131 361.5 54.5 Q293 -22 221 -123 L109 16 Q210 127 306.5 200.5 Q403 274 481 274 Q489 274 495.5 273 Q502 272 508 270 Q648 351 790 456 Q932 561 1065.5 680 Q1199 799 1313.5 922 Q1428 1045 1513 1161 L213 1161 L213 1309 L1626 1309 L1659 1319 Z" /><glyph glyph-name="cid09940" unicode="&#x4e4c;" d="M1546 403 L1546 266 L125 266 L125 403 L1546 403 ZM1878 772 L1878 700 Q1863 443 1847.5 284.5 Q1832 126 1811.5 41.5 Q1791 -43 1759 -78 Q1729 -113 1693.5 -126.5 Q1658 -140 1606 -143 Q1560 -146 1477.5 -145.5 Q1395 -145 1305 -139 Q1302 -107 1289.5 -67 Q1277 -27 1255 4 Q1351 -4 1432 -6 Q1513 -8 1550 -8 Q1578 -8 1597.5 -3.5 Q1617 1 1632 14 Q1655 36 1672 104 Q1689 172 1702 300 Q1715 428 1726 631 L397 631 L397 1503 L795 1503 Q821 1555 847 1615 Q873 1675 887 1724 L1047 1700 Q1022 1649 996 1597.5 Q970 1546 944 1503 L1686 1503 L1679 1434 Q1661 1215 1638.5 1113.5 Q1616 1012 1581 975 Q1555 949 1520.5 938 Q1486 927 1442 926 Q1402 924 1329 925 Q1256 926 1178 932 Q1176 959 1166.5 996 Q1157 1033 1143 1061 Q1221 1053 1289.5 1051 Q1358 1049 1384 1049 Q1435 1049 1456 1067 Q1475 1089 1490.5 1156.5 Q1506 1224 1520 1364 L545 1364 L545 772 L1878 772 Z" /><glyph glyph-name="cid09942" unicode="&#x4e4e;" d="M1935 752 L1935 598 L1122 598 L1122 49 Q1122 -34 1096 -74 Q1070 -114 1012 -131 Q955 -151 853 -155.5 Q751 -160 590 -160 Q581 -127 561.5 -81.5 Q542 -36 522 -4 Q651 -9 758.5 -8.5 Q866 -8 901 -8 Q935 -7 949 6 Q963 19 963 51 L963 598 L119 598 L119 752 L963 752 L963 1430 Q791 1414 618.5 1404.5 Q446 1395 287 1391 Q284 1423 272.5 1461.5 Q261 1500 250 1528 Q433 1535 630.5 1547.5 Q828 1560 1020 1579.5 Q1212 1599 1380 1624.5 Q1548 1650 1673 1683 L1753 1546 Q1624 1514 1462 1488.5 Q1300 1463 1122 1446 L1122 752 L1935 752 ZM344 1280 L477 1325 Q518 1255 558 1174.5 Q598 1094 629 1017.5 Q660 941 676 883 L537 827 Q522 886 492 964 Q462 1042 423 1124.5 Q384 1207 344 1280 ZM1499 831 L1376 883 Q1414 946 1456 1030.5 Q1498 1115 1535.5 1202 Q1573 1289 1597 1362 L1759 1307 Q1698 1185 1628.5 1053.5 Q1559 922 1499 831 Z" /><glyph glyph-name="cid09944" unicode="&#x4e4f;" d="M1720 1675 L1823 1548 Q1676 1512 1489.5 1484.5 Q1303 1457 1096 1437 Q889 1417 679 1404.5 Q469 1392 276 1386 Q273 1416 261.5 1456 Q250 1496 240 1524 Q430 1531 636 1543.5 Q842 1556 1042 1575 Q1242 1594 1417 1619 Q1592 1644 1720 1675 ZM1130 1112 L993 1036 Q963 1093 909.5 1179 Q856 1265 807 1335 L938 1399 Q987 1331 1042.5 1249 Q1098 1167 1130 1112 ZM1667 1018 L1778 938 Q1655 791 1479.5 643 Q1304 495 1101.5 365.5 Q899 236 694 141 Q793 75 922.5 56 Q1052 37 1233 37 Q1356 37 1489.5 42 Q1623 47 1749 55 Q1875 63 1974 74 Q1959 46 1944 -5 Q1929 -56 1927 -90 Q1872 -93 1784 -97 Q1696 -101 1594.5 -104.5 Q1493 -108 1395.5 -110.5 Q1298 -113 1225 -113 Q1027 -113 894 -88 Q761 -63 655 10 Q591 53 541 99 Q491 145 459 145 Q427 145 389.5 105.5 Q352 66 310 1.5 Q268 -63 223 -137 L104 12 Q209 140 300.5 215.5 Q392 291 463 291 Q492 291 518 275.5 Q544 260 573 236 Q745 308 917 411 Q1089 514 1240 630 Q1391 746 1501 860 L252 860 L252 1010 L1634 1010 L1667 1018 Z" /><glyph glyph-name="cid09945" unicode="&#x4e50;" d="M487 571 L635 522 Q578 425 506 325 Q434 225 358 133.5 Q282 42 211 -29 Q191 -9 152 22 Q113 53 88 70 Q159 133 232.5 215.5 Q306 298 372 389.5 Q438 481 487 571 ZM1888 748 L1143 748 L1143 41 Q1143 -30 1122.5 -68 Q1102 -106 1055 -123 Q1006 -143 923.5 -148 Q841 -153 709 -152 Q702 -121 687 -76.5 Q672 -32 655 0 Q752 -3 833 -3.5 Q914 -4 940 -2 Q966 -1 977.5 8 Q989 17 989 43 L989 748 L510 748 Q409 748 347.5 741.5 Q286 735 270 721 Q264 745 247.5 790 Q231 835 219 862 Q239 870 254 905 Q269 940 283 993 Q292 1026 309 1115 Q326 1204 340.5 1321.5 Q355 1439 356 1556 Q529 1561 716 1571 Q903 1581 1084 1597 Q1265 1613 1423.5 1636 Q1582 1659 1698 1690 L1786 1556 Q1665 1527 1512 1503.5 Q1359 1480 1189.5 1463.5 Q1020 1447 845.5 1437 Q671 1427 506 1423 Q492 1288 468 1151 Q444 1014 414 899 L989 899 L989 1307 L1143 1307 L1143 899 L1888 899 L1888 748 ZM1415 508 L1546 569 Q1620 489 1700 395 Q1780 301 1849 210.5 Q1918 120 1960 51 L1819 -23 Q1779 47 1712 140 Q1645 233 1567 330 Q1489 427 1415 508 Z" /><glyph glyph-name="cid09949" unicode="&#x4e52;" d="M739 352 L877 264 Q793 191 686.5 116.5 Q580 42 467.5 -25.5 Q355 -93 252 -143 Q233 -119 202.5 -86 Q172 -53 145 -33 Q250 14 361.5 79.5 Q473 145 572.5 216.5 Q672 288 739 352 ZM616 1020 L616 545 L1311 545 L1311 1020 L616 1020 ZM1462 545 L1942 545 L1942 399 L111 399 L111 545 L463 545 L463 1583 Q614 1591 776 1602.5 Q938 1614 1095.5 1629.5 Q1253 1645 1393.5 1664 Q1534 1683 1642 1706 L1722 1567 Q1576 1539 1391.5 1516.5 Q1207 1494 1007.5 1477.5 Q808 1461 616 1452 L616 1163 L1827 1163 L1827 1020 L1462 1020 L1462 545 Z" /><glyph glyph-name="cid09951" unicode="&#x4e53;" d="M1202 244 L1317 338 Q1414 284 1526.5 215 Q1639 146 1741.5 77.5 Q1844 9 1913 -45 L1792 -154 Q1727 -100 1627 -29.5 Q1527 41 1415 113 Q1303 185 1202 244 ZM616 1020 L616 545 L1311 545 L1311 1020 L616 1020 ZM1462 545 L1942 545 L1942 399 L111 399 L111 545 L463 545 L463 1583 Q614 1591 776 1602.5 Q938 1614 1095.5 1629.5 Q1253 1645 1393.5 1664 Q1534 1683 1642 1706 L1722 1567 Q1576 1539 1391.5 1516.5 Q1207 1494 1007.5 1477.5 Q808 1461 616 1452 L616 1163 L1827 1163 L1827 1020 L1462 1020 L1462 545 Z" /><glyph glyph-name="cid09952" unicode="&#x4e54;" d="M612 543 L612 770 L764 770 L764 539 Q764 450 750 356 Q736 262 692.5 170 Q649 78 561.5 -6 Q474 -90 328 -160 Q309 -132 274 -99 Q239 -66 211 -47 Q347 14 427.5 86 Q508 158 547.5 235.5 Q587 313 599.5 391 Q612 469 612 543 ZM1262 -156 L1262 772 L1415 772 L1415 -156 L1262 -156 ZM1931 1063 L1358 1063 Q1465 923 1628.5 816 Q1792 709 1976 653 Q1950 630 1920 592.5 Q1890 555 1872 524 Q1663 598 1483 738.5 Q1303 879 1188 1063 L854 1063 Q730 876 559.5 740 Q389 604 174 510 Q160 533 127 575 Q94 617 70 637 Q445 783 668 1063 L119 1063 L119 1210 L768 1210 Q802 1267 830 1328.5 Q858 1390 881 1456 Q724 1445 567 1439 Q410 1433 262 1430 Q261 1457 250.5 1495.5 Q240 1534 227 1559 Q414 1563 614 1573 Q814 1583 1007 1598 Q1200 1613 1368 1634 Q1536 1655 1659 1681 L1769 1561 Q1622 1528 1438 1506 Q1254 1484 1053 1468 Q1030 1399 1001.5 1334.5 Q973 1270 942 1210 L1931 1210 L1931 1063 Z" /><glyph glyph-name="cid09956" unicode="&#x4e56;" d="M575 866 L575 1049 L721 1049 L721 219 L575 219 L575 395 Q470 355 367.5 317.5 Q265 280 176 248 L109 387 Q198 410 320.5 448 Q443 486 575 526 L575 731 L154 731 L154 866 L575 866 ZM1925 1137 L1098 1137 L1098 -158 L942 -158 L942 1137 L127 1137 L127 1278 L942 1278 L942 1481 Q776 1470 607.5 1462.5 Q439 1455 283 1450 Q281 1478 270 1514.5 Q259 1551 248 1577 Q431 1583 625 1593.5 Q819 1604 1006.5 1619 Q1194 1634 1358 1654 Q1522 1674 1645 1700 L1749 1575 Q1614 1549 1447.5 1528.5 Q1281 1508 1098 1493 L1098 1278 L1925 1278 L1925 1137 ZM1534 365 L1751 365 Q1778 365 1792.5 379.5 Q1807 394 1813.5 439.5 Q1820 485 1823 578 Q1846 559 1884.5 542.5 Q1923 526 1954 518 Q1946 404 1926.5 341.5 Q1907 279 1869 254 Q1831 229 1765 229 L1513 229 Q1394 229 1353.5 270 Q1313 311 1313 428 L1313 1047 L1460 1047 L1460 788 Q1554 830 1642.5 879.5 Q1731 929 1792 975 L1901 864 Q1808 807 1690 753 Q1572 699 1460 657 L1460 428 Q1460 388 1473 376.5 Q1486 365 1534 365 Z" /><glyph glyph-name="cid09959" unicode="&#x4e58;" d="M1315 1092 L1456 1092 L1456 883 Q1538 913 1614 947 Q1690 981 1747 1012 L1839 899 Q1755 862 1653 824.5 Q1551 787 1456 758 L1456 592 Q1456 558 1468.5 548.5 Q1481 539 1524 539 L1726 539 Q1762 539 1773.5 564.5 Q1785 590 1788 690 Q1811 672 1848 658 Q1885 644 1917 639 Q1903 502 1866 455 Q1829 408 1743 408 L1507 408 Q1392 408 1353.5 446 Q1315 484 1315 592 L1315 1092 ZM166 442 L135 573 Q223 584 340.5 602.5 Q458 621 586 641 L586 821 L195 821 L195 946 L586 946 L586 1087 L727 1087 L727 426 L586 426 L586 520 L166 442 ZM1100 1147 L1100 678 Q1186 536 1321 408 Q1456 280 1622 182.5 Q1788 85 1966 33 Q1942 10 1913 -27.5 Q1884 -65 1866 -94 Q1645 -17 1444.5 132 Q1244 281 1100 473 L1100 -154 L944 -154 L944 463 Q800 277 600 133 Q400 -11 176 -86 Q159 -57 131.5 -19.5 Q104 18 78 41 Q257 92 422.5 187.5 Q588 283 722.5 409 Q857 535 944 676 L944 1147 L137 1147 L137 1286 L944 1286 L944 1475 Q781 1462 617.5 1454.5 Q454 1447 303 1444 Q300 1473 289.5 1510 Q279 1547 268 1573 Q446 1579 637.5 1590 Q829 1601 1016 1617.5 Q1203 1634 1368 1655 Q1533 1676 1657 1702 L1726 1569 Q1599 1543 1437.5 1522.5 Q1276 1502 1100 1487 L1100 1286 L1907 1286 L1907 1147 L1100 1147 Z" /><glyph glyph-name="cid09961" unicode="&#x2f04;&#x4e59;" d="M612 80 L1563 80 Q1635 80 1675.5 113 Q1716 146 1734 237 Q1752 328 1759 502 Q1791 483 1836 467.5 Q1881 452 1915 444 Q1901 233 1863.5 121.5 Q1826 10 1751 -32 Q1676 -74 1548 -74 L629 -74 Q406 -74 298 1.5 Q190 77 190 209 Q190 247 200 289 Q210 331 243.5 388.5 Q277 446 348 528.5 Q419 611 540.5 729 Q662 847 847.5 1009.5 Q1033 1172 1296 1391 L203 1391 L203 1544 L1511 1544 L1548 1554 L1655 1479 Q1644 1465 1624 1456 Q1324 1212 1111.5 1032.5 Q899 853 759.5 725.5 Q620 598 537.5 513 Q455 428 415.5 373 Q376 318 364 283 Q352 248 352 221 Q352 147 423 113.5 Q494 80 612 80 Z" /><glyph glyph-name="cid09968" unicode="&#x4e5d;" d="M1536 37 L1737 37 Q1767 37 1783 63.5 Q1799 90 1805.5 163.5 Q1812 237 1817 377 Q1843 355 1884.5 336.5 Q1926 318 1958 309 Q1951 150 1931.5 58.5 Q1912 -33 1869.5 -71 Q1827 -109 1749 -109 L1518 -109 Q1393 -109 1351 -59.5 Q1309 -10 1309 127 L1309 1104 L854 1104 Q839 916 801.5 735 Q764 554 693 390 Q622 226 506 86 Q390 -54 217 -160 Q199 -132 164 -97 Q129 -62 96 -41 Q261 53 370 178 Q479 303 545.5 452 Q612 601 645.5 766 Q679 931 692 1104 L158 1104 L158 1253 L702 1253 Q707 1367 708 1481 Q709 1595 709 1706 L872 1706 Q872 1595 870 1481 Q868 1367 862 1253 L1464 1253 L1464 127 Q1464 70 1477 53.5 Q1490 37 1536 37 Z" /><glyph glyph-name="cid09969" unicode="&#x4e5e;" d="M1896 1303 L547 1303 Q470 1192 386.5 1093.5 Q303 995 217 920 Q194 941 153.5 975.5 Q113 1010 84 1030 Q239 1150 374 1332.5 Q509 1515 594 1716 L750 1669 Q727 1614 698.5 1559 Q670 1504 639 1452 L1896 1452 L1896 1303 ZM668 35 L1608 33 Q1665 33 1697.5 54 Q1730 75 1745 138 Q1760 201 1765 326 Q1835 288 1915 274 Q1902 110 1869.5 25.5 Q1837 -59 1772 -88 Q1707 -117 1595 -117 L686 -117 Q494 -117 402.5 -56 Q311 5 311 113 Q311 148 322.5 187.5 Q334 227 377.5 282 Q421 337 513.5 416 Q606 495 766.5 607.5 Q927 720 1176 877 L416 877 L416 1024 L1436 1024 L1470 1030 L1581 952 Q1575 948 1566 941 Q1557 934 1546 928 Q1243 744 1045 616 Q847 488 730.5 403.5 Q614 319 558 266.5 Q502 214 485.5 182 Q469 150 469 127 Q469 78 523 56.5 Q577 35 668 35 Z" /><glyph glyph-name="cid09970" unicode="&#x4e5f;" d="M831 25 L1552 25 Q1648 25 1696.5 54 Q1745 83 1766 161 Q1787 239 1800 385 Q1828 365 1869.5 348 Q1911 331 1942 324 Q1926 159 1892 63 Q1858 -33 1780 -74 Q1702 -115 1554 -115 L838 -115 Q686 -115 600.5 -88 Q515 -61 479.5 9 Q444 79 444 207 L444 846 L111 741 L70 879 L444 993 L444 1575 L592 1575 L592 1038 L1016 1169 L1016 1710 L1165 1710 L1165 1214 L1640 1362 L1653 1372 L1683 1395 L1790 1348 L1782 1319 Q1777 1032 1762.5 845 Q1748 658 1716 569 Q1687 491 1646 457 Q1605 423 1552 416 Q1505 408 1436.5 406 Q1368 404 1313 406 Q1310 435 1299.5 478 Q1289 521 1274 547 Q1328 542 1389.5 541.5 Q1451 541 1479 541 Q1512 541 1538.5 558 Q1565 575 1585 637 Q1608 703 1618.5 848 Q1629 993 1632 1214 L1165 1069 L1165 279 L1016 279 L1016 1022 L592 891 L592 203 Q592 131 610.5 92.5 Q629 54 680.5 39.5 Q732 25 831 25 Z" /><glyph glyph-name="cid09972" unicode="&#x4e60;" d="M1438 682 L1466 539 Q1256 465 1040.5 390.5 Q825 316 627 247.5 Q429 179 272 125 L217 279 Q364 323 564.5 388 Q765 453 991 529 Q1217 605 1438 682 ZM479 1151 L582 1249 Q671 1189 774 1115 Q877 1041 970.5 968.5 Q1064 896 1124 840 L1016 723 Q958 780 867 855.5 Q776 931 673 1008.5 Q570 1086 479 1151 ZM1812 1565 L1812 1479 Q1807 1077 1800 803 Q1793 529 1782 357 Q1771 185 1752.5 92 Q1734 -1 1706 -39 Q1672 -90 1632.5 -110.5 Q1593 -131 1536 -135 Q1478 -141 1387 -139.5 Q1296 -138 1208 -133 Q1208 -101 1194.5 -59.5 Q1181 -18 1159 12 Q1267 5 1354 3.5 Q1441 2 1483 2 Q1510 2 1529.5 8.5 Q1549 15 1565 35 Q1589 62 1605.5 149.5 Q1622 237 1632 400 Q1642 563 1648 814 Q1654 1065 1659 1417 L250 1417 L250 1565 L1812 1565 Z" /><glyph glyph-name="cid09973" unicode="&#x4e61;" d="M1657 934 L1819 879 Q1681 569 1455 367 Q1229 165 922.5 42.5 Q616 -80 238 -150 Q228 -117 202 -70.5 Q176 -24 156 4 Q586 70 915.5 207 Q1245 344 1454 594 Q1165 571 971.5 555 Q778 539 657.5 528 Q537 517 470 508.5 Q403 500 369 493.5 Q335 487 313 479 Q309 502 293.5 550.5 Q278 599 262 631 Q319 638 391 671 Q463 704 563 758 Q626 788 758.5 868 Q891 948 1053 1059 Q845 1043 719 1032 Q593 1021 526 1013 Q459 1005 429 998.5 Q399 992 381 985 Q375 1010 359.5 1058.5 Q344 1107 330 1141 Q368 1145 410.5 1170 Q453 1195 508 1235 Q539 1255 597.5 1301 Q656 1347 729.5 1411.5 Q803 1476 880.5 1551.5 Q958 1627 1026 1706 L1167 1618 Q1041 1489 905.5 1371 Q770 1253 633 1159 L1249 1198 Q1314 1249 1378.5 1301 Q1443 1353 1503 1405 L1640 1305 Q1413 1116 1175.5 958.5 Q938 801 700 678 L1559 739 Q1585 784 1610 833 Q1635 882 1657 934 Z" /><glyph glyph-name="cid09980" unicode="&#x4e66;" d="M1942 1374 L1847 1260 Q1806 1299 1741.5 1350.5 Q1677 1402 1604.5 1454.5 Q1532 1507 1466 1550 L1556 1649 Q1621 1609 1694 1559.5 Q1767 1510 1832.5 1461 Q1898 1412 1942 1374 ZM1012 1208 L1012 809 L1485 809 L1485 1208 L1012 1208 ZM1634 809 L1929 809 Q1929 809 1927.5 781.5 Q1926 754 1923 737 Q1908 534 1891.5 406 Q1875 278 1853.5 207.5 Q1832 137 1802 106 Q1770 74 1732.5 61 Q1695 48 1642 45 Q1596 42 1511 43.5 Q1426 45 1331 49 Q1330 83 1316 123.5 Q1302 164 1282 195 Q1379 185 1465.5 183.5 Q1552 182 1589 182 Q1620 182 1639 185.5 Q1658 189 1675 203 Q1704 229 1726.5 335 Q1749 441 1767 664 L1012 664 L1012 -156 L860 -156 L860 664 L131 664 L131 809 L860 809 L860 1208 L266 1208 L266 1356 L860 1356 L860 1706 L1012 1706 L1012 1356 L1634 1356 L1634 809 Z" /><glyph glyph-name="cid09992" unicode="&#x4e70;" d="M1653 1079 L1528 1141 Q1565 1198 1606.5 1275 Q1648 1352 1683 1434 L236 1434 L236 1579 L1735 1579 L1735 1581 L1763 1581 L1788 1589 L1898 1544 Q1845 1421 1779.5 1294 Q1714 1167 1653 1079 ZM940 1102 L854 985 Q812 1020 745 1061.5 Q678 1103 602 1143 Q526 1183 457 1212 L539 1315 Q607 1288 683 1251 Q759 1214 827 1175 Q895 1136 940 1102 ZM713 815 L627 700 Q585 734 518.5 773.5 Q452 813 377 851 Q302 889 233 918 L315 1020 Q383 993 458.5 958 Q534 923 601.5 885.5 Q669 848 713 815 ZM1090 250 L1167 356 Q1303 298 1438.5 230 Q1574 162 1693 94 Q1812 26 1898 -35 L1802 -152 Q1718 -89 1603.5 -19 Q1489 51 1357 120 Q1225 189 1090 250 ZM1153 618 L1913 618 L1913 475 L1110 475 Q1055 315 946.5 192.5 Q838 70 656 -17.5 Q474 -105 197 -162 Q186 -133 162 -95 Q138 -57 117 -33 Q364 12 528.5 82.5 Q693 153 794.5 250.5 Q896 348 952 475 L145 475 L145 618 L1001 618 Q1035 758 1046 929.5 Q1057 1101 1063 1309 L1214 1309 Q1208 1107 1196.5 935.5 Q1185 764 1153 618 Z" /><glyph glyph-name="cid09993" unicode="&#x4e71;" d="M922 109 L922 526 L338 526 L338 109 L922 109 ZM702 1481 L702 1145 L1153 1145 L1153 1006 L702 1006 L702 664 L1071 664 L1071 -104 L922 -104 L922 -29 L338 -29 L338 -117 L195 -117 L195 664 L553 664 L553 1006 L88 1006 L88 1145 L553 1145 L553 1454 Q456 1439 357 1426.5 Q258 1414 164 1405 Q159 1431 147 1467 Q135 1503 121 1528 Q275 1545 439 1570.5 Q603 1596 749 1627.5 Q895 1659 995 1696 L1112 1581 Q1025 1550 920.5 1525.5 Q816 1501 702 1481 ZM1487 12 L1726 12 Q1764 12 1783.5 44.5 Q1803 77 1811.5 160 Q1820 243 1825 395 Q1852 372 1891 353.5 Q1930 335 1962 328 Q1954 159 1934 59.5 Q1914 -40 1869 -83.5 Q1824 -127 1739 -127 L1470 -127 Q1384 -127 1336 -104.5 Q1288 -82 1268.5 -25 Q1249 32 1249 135 L1249 1690 L1399 1690 L1399 133 Q1399 56 1415.5 34 Q1432 12 1487 12 Z" /><glyph glyph-name="cid09996" unicode="&#x4e73;" d="M1149 557 L1151 422 Q1047 410 939 397.5 Q831 385 727 373 L727 6 Q727 -52 711.5 -83.5 Q696 -115 653 -133 Q609 -150 540 -153 Q471 -156 365 -156 Q358 -125 344 -87.5 Q330 -50 317 -20 Q393 -24 458 -24 Q523 -24 543 -23 Q564 -21 572 -14.5 Q580 -8 580 10 L580 358 Q451 343 332.5 330.5 Q214 318 117 307 L100 453 Q197 462 320 473 Q443 484 580 498 L580 631 Q649 677 723 742.5 Q797 808 860 874 L211 874 L211 1006 L979 1006 L1014 1016 L1114 938 Q1036 844 932 749.5 Q828 655 727 582 L727 512 Q830 523 937 534 Q1044 545 1149 557 ZM483 1073 L352 1018 Q332 1089 289 1188 Q246 1287 205 1368 L328 1417 Q374 1336 417 1238.5 Q460 1141 483 1073 ZM512 1411 L637 1448 Q669 1365 703 1268 Q737 1171 754 1102 L623 1055 Q607 1125 575 1226 Q543 1327 512 1411 ZM928 1032 L807 1079 Q841 1135 878.5 1209.5 Q916 1284 949.5 1361.5 Q983 1439 1006 1503 L1151 1446 Q1100 1341 1040 1226 Q980 1111 928 1032 ZM1067 1716 L1171 1595 Q1043 1559 877.5 1533 Q712 1507 533.5 1490.5 Q355 1474 190 1464 Q187 1490 174.5 1526.5 Q162 1563 150 1589 Q310 1599 482.5 1617 Q655 1635 809 1659.5 Q963 1684 1067 1716 ZM1511 33 L1735 33 Q1769 33 1787 64.5 Q1805 96 1813 178.5 Q1821 261 1825 414 Q1852 392 1890.5 373 Q1929 354 1960 346 Q1953 179 1934 81 Q1915 -17 1871 -59.5 Q1827 -102 1745 -102 L1493 -102 Q1409 -102 1363 -80 Q1317 -58 1298.5 -3 Q1280 52 1280 152 L1280 1659 L1430 1659 L1430 150 Q1430 74 1445.5 53.5 Q1461 33 1511 33 Z" /><glyph glyph-name="cid10027" unicode="&#x4e86;" d="M1704 1565 L1823 1477 Q1733 1377 1615 1277 Q1497 1177 1367 1086.5 Q1237 996 1110 928 L1110 43 Q1110 -35 1086.5 -73.5 Q1063 -112 1004 -129 Q945 -147 842 -151.5 Q739 -156 584 -156 Q578 -123 559.5 -79 Q541 -35 522 -4 Q650 -9 756 -8.5 Q862 -8 897 -6 Q929 -5 940.5 5 Q952 15 952 43 L952 1004 Q1051 1052 1153 1118 Q1255 1184 1350 1258 Q1445 1332 1522 1405 L205 1405 L205 1554 L1667 1554 L1704 1565 Z" /><glyph glyph-name="cid10030" unicode="&#x4e88;" d="M1825 965 L1946 907 Q1864 774 1768.5 638.5 Q1673 503 1579 410 L1456 487 Q1513 549 1576.5 633.5 Q1640 718 1696 807 L1114 807 L1114 35 Q1114 -36 1093 -72 Q1072 -108 1018 -125 Q964 -142 873.5 -146 Q783 -150 649 -150 Q642 -117 624.5 -75.5 Q607 -34 592 -2 Q698 -7 789.5 -6.5 Q881 -6 911 -4 Q939 -3 950 5.5 Q961 14 961 37 L961 807 L117 807 L117 952 L1178 952 Q1091 996 988.5 1044.5 Q886 1093 782.5 1139.5 Q679 1186 588 1225 L666 1337 Q750 1304 846.5 1263.5 Q943 1223 1036 1182 Q1133 1237 1237.5 1312 Q1342 1387 1425 1462 L309 1462 L309 1604 L1573 1604 L1608 1612 L1718 1528 Q1609 1419 1466.5 1308.5 Q1324 1198 1186 1112 Q1249 1084 1306.5 1056.5 Q1364 1029 1407 1006 L1372 952 L1794 952 L1825 965 Z" /><glyph glyph-name="cid10032" unicode="&#x4e89;" d="M1538 446 L1538 684 L1087 684 L1087 446 L1538 446 ZM1087 1047 L1087 823 L1538 823 L1538 1047 L1087 1047 ZM1266 1411 L688 1411 Q639 1353 582.5 1295.5 Q526 1238 463 1184 L1071 1184 Q1123 1231 1173.5 1292 Q1224 1353 1266 1411 ZM1962 823 L1962 684 L1688 684 L1688 307 L1087 307 L1087 35 Q1087 -39 1066 -75 Q1045 -111 991 -129 Q939 -147 850 -151 Q761 -155 625 -154 Q617 -123 599 -81.5 Q581 -40 565 -8 Q676 -11 765.5 -11.5 Q855 -12 883 -10 Q912 -9 923 1 Q934 11 934 37 L934 307 L295 307 L295 446 L934 446 L934 684 L94 684 L94 823 L934 823 L934 1047 L377 1047 L377 1116 Q352 1098 326.5 1079.5 Q301 1061 274 1042 Q254 1069 220.5 1099.5 Q187 1130 160 1147 Q361 1270 504.5 1425 Q648 1580 725 1716 L889 1688 Q869 1652 845 1616.5 Q821 1581 795 1544 L1368 1544 L1393 1552 L1501 1479 Q1455 1405 1391 1328 Q1327 1251 1257 1184 L1688 1184 L1688 823 L1962 823 Z" /><glyph glyph-name="cid10034" unicode="&#x4e8b;" d="M1585 270 L1585 424 L1094 424 L1094 270 L1585 270 ZM1094 688 L1094 545 L1585 545 L1585 688 L1094 688 ZM502 1051 L942 1051 L942 1198 L502 1198 L502 1051 ZM1552 1198 L1094 1198 L1094 1051 L1552 1051 L1552 1198 ZM1948 545 L1948 424 L1737 424 L1737 61 L1585 61 L1585 154 L1094 154 L1094 12 Q1094 -58 1072 -90 Q1050 -122 1004 -139 Q956 -156 873.5 -160 Q791 -164 664 -164 Q657 -135 641.5 -98 Q626 -61 610 -35 Q702 -38 783.5 -37.5 Q865 -37 891 -37 Q920 -35 931 -24.5 Q942 -14 942 12 L942 154 L281 154 L281 270 L942 270 L942 424 L104 424 L104 545 L942 545 L942 688 L299 688 L299 801 L942 801 L942 944 L356 944 L356 1305 L942 1305 L942 1423 L143 1423 L143 1548 L942 1548 L942 1712 L1094 1712 L1094 1548 L1909 1548 L1909 1423 L1094 1423 L1094 1305 L1704 1305 L1704 944 L1094 944 L1094 801 L1737 801 L1737 545 L1948 545 Z" /><glyph glyph-name="cid10035" unicode="&#x2f06;&#x4e8c;" d="M295 1419 L1755 1419 L1755 1257 L295 1257 L295 1419 ZM123 213 L1927 213 L1927 47 L123 47 L123 213 Z" /><glyph glyph-name="cid10037" unicode="&#x4e8e;" d="M1931 901 L1931 752 L1122 752 L1122 66 Q1122 -19 1097.5 -59.5 Q1073 -100 1016 -119 Q959 -139 857 -143 Q755 -147 600 -147 Q592 -115 572.5 -68.5 Q553 -22 535 10 Q660 7 765 7 Q870 7 905 8 Q937 10 951 21.5 Q965 33 965 66 L965 752 L119 752 L119 901 L965 901 L965 1417 L260 1417 L260 1567 L1788 1567 L1788 1417 L1122 1417 L1122 901 L1931 901 Z" /><glyph glyph-name="cid10039" unicode="&#x4e8f;" d="M1765 1595 L1765 1452 L279 1452 L279 1595 L1765 1595 ZM1923 969 L772 969 Q752 877 731 782 Q710 687 688 602 L1700 602 L1694 532 Q1675 333 1656 206 Q1637 79 1612.5 8 Q1588 -63 1554 -96 Q1516 -133 1473 -145 Q1430 -157 1364 -160 Q1306 -163 1200 -161 Q1094 -159 977 -152 Q974 -118 957 -77.5 Q940 -37 915 -6 Q999 -13 1081 -16.5 Q1163 -20 1226.5 -21.5 Q1290 -23 1321 -23 Q1361 -23 1384 -19.5 Q1407 -16 1425 -4 Q1464 25 1488 133 Q1512 241 1534 461 L508 461 L508 463 L485 463 Q516 564 547.5 702.5 Q579 841 602 969 L119 969 L119 1112 L1923 1112 L1923 969 Z" /><glyph glyph-name="cid10043" unicode="&#x4e91;" d="M1718 1548 L1718 1395 L344 1395 L344 1548 L1718 1548 ZM1929 821 L965 821 Q862 631 742.5 448.5 Q623 266 500 119 L1526 197 Q1464 293 1397.5 389 Q1331 485 1270 569 L1405 641 Q1491 526 1582.5 396 Q1674 266 1753.5 142 Q1833 18 1882 -76 L1741 -162 Q1716 -116 1685 -60 Q1654 -4 1616 57 Q1280 28 1055 8 Q830 -12 690 -25 Q550 -38 473 -47 Q396 -56 357.5 -64 Q319 -72 295 -82 Q287 -54 270 -1.5 Q253 51 238 86 Q271 95 308.5 135 Q346 175 393 238 Q424 272 484 360.5 Q544 449 616 569.5 Q688 690 754 821 L121 821 L121 975 L1929 975 L1929 821 Z" /><glyph glyph-name="cid10045" unicode="&#x4e92;" d="M608 539 L1354 539 Q1371 658 1383.5 770.5 Q1396 883 1407 977 L698 977 Q675 860 652.5 747.5 Q630 635 608 539 ZM1444 66 L1942 66 L1942 -84 L115 -84 L115 66 L1286 66 Q1298 142 1310.5 225.5 Q1323 309 1335 395 L406 395 Q432 496 461.5 624.5 Q491 753 520 895.5 Q549 1038 575.5 1179.5 Q602 1321 623 1448 L182 1448 L182 1595 L1880 1595 L1880 1448 L784 1448 Q772 1370 757 1288 Q742 1206 725 1120 L1438 1120 L1466 1128 L1579 1114 Q1569 1010 1553.5 881.5 Q1538 753 1519.5 612.5 Q1501 472 1481.5 331.5 Q1462 191 1444 66 Z" /><glyph glyph-name="cid10048" unicode="&#x4e94;" d="M1421 774 L907 774 Q878 591 847 417.5 Q816 244 786 104 L1358 104 Q1369 214 1380.5 333 Q1392 452 1402.5 566 Q1413 680 1421 774 ZM1516 104 L1931 104 L1931 -45 L123 -45 L123 104 L621 104 Q651 244 683 417.5 Q715 591 745 774 L365 774 L365 924 L770 924 Q807 1153 836 1364 L252 1364 L252 1513 L1784 1513 L1784 1364 L997 1364 Q982 1261 965 1148.5 Q948 1036 930 924 L1446 924 L1473 932 L1589 920 Q1582 807 1570.5 668 Q1559 529 1545 383.5 Q1531 238 1516 104 Z" /><glyph glyph-name="cid10049" unicode="&#x4e95;" d="M737 657 L1313 657 L1313 1143 L748 1143 L748 913 Q748 849 745.5 784.5 Q743 720 737 657 ZM1919 657 L1919 506 L1468 506 L1468 -156 L1313 -156 L1313 506 L719 506 Q685 311 587.5 136.5 Q490 -38 283 -176 Q261 -152 222.5 -118 Q184 -84 154 -66 Q339 53 430 197.5 Q521 342 555 506 L133 506 L133 657 L580 657 Q586 720 588 784.5 Q590 849 590 915 L590 1143 L197 1143 L197 1292 L590 1292 L590 1704 L748 1704 L748 1292 L1313 1292 L1313 1706 L1468 1706 L1468 1292 L1872 1292 L1872 1143 L1468 1143 L1468 657 L1919 657 Z" /><glyph glyph-name="cid10055" unicode="&#x4e9a;" d="M846 1440 L846 111 L1176 111 L1176 1440 L846 1440 ZM1337 111 L1948 111 L1948 -37 L100 -37 L100 111 L684 111 L684 1440 L156 1440 L156 1589 L1901 1589 L1901 1440 L1337 1440 L1337 111 ZM178 1102 L311 1149 Q365 1040 420 916 Q475 792 521.5 676 Q568 560 596 475 L453 416 Q428 502 383 620.5 Q338 739 284 865.5 Q230 992 178 1102 ZM1534 426 L1401 477 Q1453 565 1511 681.5 Q1569 798 1621.5 919.5 Q1674 1041 1710 1147 L1855 1098 Q1810 983 1755.5 862 Q1701 741 1643.5 628 Q1586 515 1534 426 Z" /><glyph glyph-name="cid10056" unicode="&#x4e9b;" d="M1716 682 L1368 682 Q1272 682 1219 702 Q1166 722 1145 772 Q1124 822 1124 911 L1124 1712 L1276 1712 L1276 1307 Q1405 1353 1527 1407 Q1649 1461 1731 1513 L1851 1397 Q1732 1332 1579 1275 Q1426 1218 1276 1171 L1276 911 Q1276 859 1295 843 Q1314 827 1384 827 L1704 827 Q1745 827 1765.5 846.5 Q1786 866 1794.5 923 Q1803 980 1808 1094 Q1834 1074 1875 1056.5 Q1916 1039 1950 1030 Q1939 894 1916.5 818.5 Q1894 743 1847 712.5 Q1800 682 1716 682 ZM350 342 L350 487 L1722 487 L1722 342 L350 342 ZM1030 879 L1032 741 Q867 719 701.5 697 Q536 675 384 656 Q232 637 111 623 L92 770 L227 784 L227 1489 L369 1489 L369 801 L549 823 L549 1712 L698 1712 L698 1362 L1016 1362 L1016 1223 L698 1223 L698 842 L1030 879 ZM123 -106 L123 43 L1927 43 L1927 -106 L123 -106 Z" /><glyph glyph-name="cid10070" unicode="&#x4ea1;" d="M1927 1135 L571 1135 L571 117 L1806 117 L1806 -35 L414 -35 L414 1135 L121 1135 L121 1284 L1032 1284 Q1020 1333 994.5 1399 Q969 1465 936.5 1535 Q904 1605 870 1665 L1024 1716 Q1078 1626 1128.5 1519.5 Q1179 1413 1200 1337 L1047 1284 L1927 1284 L1927 1135 Z" /><glyph glyph-name="cid10076" unicode="&#x4ea4;" d="M1901 1432 L1901 1282 L143 1282 L143 1432 L993 1432 Q972 1485 933.5 1554.5 Q895 1624 858 1683 L999 1733 Q1042 1671 1085.5 1596 Q1129 1521 1151 1468 L1059 1432 L1901 1432 ZM1266 1135 L1382 1223 Q1476 1159 1576.5 1081 Q1677 1003 1765 924.5 Q1853 846 1909 780 L1784 682 Q1733 746 1647 827 Q1561 908 1460.5 989 Q1360 1070 1266 1135 ZM655 1219 L801 1161 Q732 1074 642 987.5 Q552 901 455 823.5 Q358 746 268 688 Q248 711 212 747 Q176 783 152 803 Q242 854 334.5 921.5 Q427 989 510.5 1065 Q594 1141 655 1219 ZM1331 874 L1487 831 Q1362 521 1145 313 Q1303 194 1505.5 113 Q1708 32 1954 -6 Q1929 -31 1902 -71 Q1875 -111 1860 -143 Q1606 -94 1399.5 -5.5 Q1193 83 1030 215 Q861 81 651.5 -9 Q442 -99 195 -162 Q182 -134 153.5 -91.5 Q125 -49 102 -25 Q348 26 554 109.5 Q760 193 920 315 Q814 418 731.5 545 Q649 672 588 821 L723 862 Q828 599 1030 410 Q1128 503 1204.5 619 Q1281 735 1331 874 Z" /><glyph glyph-name="cid10080" unicode="&#x4ea6;" d="M1178 1421 L1028 1364 Q1004 1425 956.5 1514.5 Q909 1604 860 1677 L1004 1724 Q1053 1654 1104 1568.5 Q1155 1483 1178 1421 ZM1919 1210 L1382 1210 L1382 41 Q1382 -31 1362.5 -68.5 Q1343 -106 1294 -125 Q1244 -143 1157.5 -148.5 Q1071 -154 942 -154 Q936 -121 921 -76.5 Q906 -32 889 0 Q989 -3 1072.5 -3.5 Q1156 -4 1182 -2 Q1209 -1 1219 8 Q1229 17 1229 43 L1229 1210 L887 1210 L887 975 Q887 840 871 692 Q855 544 804.5 393.5 Q754 243 650.5 99.5 Q547 -44 371 -168 Q352 -142 317 -108 Q282 -74 256 -55 Q421 58 517.5 188 Q614 318 660.5 454 Q707 590 721 723 Q735 856 735 975 L735 1210 L131 1210 L131 1360 L1919 1360 L1919 1210 ZM395 993 L549 965 Q501 780 425 611 Q349 442 258 326 Q237 344 195 371 Q153 398 125 412 Q217 518 286 673.5 Q355 829 395 993 ZM1481 942 L1612 995 Q1678 892 1741 772.5 Q1804 653 1853.5 539 Q1903 425 1927 338 L1784 274 Q1761 362 1714.5 478 Q1668 594 1607 715.5 Q1546 837 1481 942 Z" /><glyph glyph-name="cid10081" unicode="&#x4ea7;" d="M1841 1466 L1841 1321 L231 1321 L231 1466 L997 1466 Q976 1516 942 1572.5 Q908 1629 872 1673 L1022 1716 Q1068 1659 1112 1590 Q1156 1521 1176 1470 L1165 1466 L1841 1466 ZM854 1016 L715 954 Q692 1014 642.5 1097 Q593 1180 543 1249 L674 1303 Q726 1238 777 1157 Q828 1076 854 1016 ZM1894 948 L1894 801 L418 801 L418 666 Q418 545 401.5 396 Q385 247 339.5 98 Q294 -51 207 -172 Q187 -151 146 -115 Q105 -79 82 -66 Q162 44 200.5 174 Q239 304 250.5 433 Q262 562 262 670 L262 948 L1241 948 Q1284 1019 1331.5 1117 Q1379 1215 1407 1292 L1571 1239 Q1529 1165 1483.5 1089 Q1438 1013 1395 948 L1894 948 Z" /><glyph glyph-name="cid10084" unicode="&#x4ea9;" d="M948 928 L432 928 L432 594 L948 594 L948 928 ZM1606 594 L1606 928 L1098 928 L1098 594 L1606 594 ZM1098 100 L1606 100 L1606 453 L1098 453 L1098 100 ZM432 453 L432 100 L948 100 L948 453 L432 453 ZM283 -156 L283 1073 L1759 1073 L1759 -150 L1606 -150 L1606 -45 L432 -45 L432 -156 L283 -156 ZM1126 1434 L1915 1434 L1915 1286 L131 1286 L131 1434 L995 1434 Q969 1489 932 1554.5 Q895 1620 860 1677 L1004 1724 Q1048 1661 1094 1582 Q1140 1503 1161 1448 L1126 1434 Z" /><glyph glyph-name="cid10087" unicode="&#x4eab;" d="M1907 1536 L1907 1403 L137 1403 L137 1536 L958 1536 Q943 1576 924 1619 Q905 1662 887 1698 L1038 1729 Q1063 1686 1087.5 1633.5 Q1112 1581 1128 1536 L1907 1536 ZM545 1159 L545 975 L1507 975 L1507 1159 L545 1159 ZM1665 862 L395 862 L395 1272 L1665 1272 L1665 862 ZM1931 369 L1931 236 L1100 236 L1100 -2 Q1100 -65 1078.5 -95.5 Q1057 -126 1004 -143 Q951 -157 860.5 -159.5 Q770 -162 633 -162 Q627 -131 611 -96.5 Q595 -62 582 -35 Q685 -38 776 -38 Q867 -38 893 -37 Q922 -35 932 -27 Q942 -19 942 2 L942 236 L119 236 L119 369 L942 369 L942 492 Q1045 513 1154 544.5 Q1263 576 1358 614 L309 614 L309 739 L1599 739 L1632 748 L1735 662 Q1604 586 1437 524.5 Q1270 463 1100 422 L1100 369 L1931 369 Z" /><glyph glyph-name="cid10089" unicode="&#x4eac;" d="M487 418 L633 367 Q556 247 445.5 122 Q335 -3 227 -92 Q206 -72 172 -43.5 Q138 -15 115 2 Q183 57 254.5 128.5 Q326 200 387.5 275 Q449 350 487 418 ZM541 1012 L541 684 L1520 684 L1520 1012 L541 1012 ZM1677 549 L1110 549 L1110 18 Q1110 -49 1091 -84 Q1072 -119 1020 -137 Q968 -156 878 -158.5 Q788 -161 653 -160 Q647 -127 632 -87 Q617 -47 602 -14 Q707 -17 792.5 -17.5 Q878 -18 905 -16 Q934 -16 943 -7.5 Q952 1 952 23 L952 549 L391 549 L391 1145 L1677 1145 L1677 549 ZM1399 344 L1524 420 Q1589 354 1662.5 276 Q1736 198 1801 122.5 Q1866 47 1907 -10 L1774 -100 Q1736 -42 1674 36 Q1612 114 1539.5 195 Q1467 276 1399 344 ZM1155 1458 L1913 1458 L1913 1309 L139 1309 L139 1458 L977 1458 Q951 1510 918.5 1569.5 Q886 1629 852 1681 L995 1726 Q1038 1667 1082.5 1592 Q1127 1517 1155 1458 Z" /><glyph glyph-name="cid10091" unicode="&#x4ead;" d="M408 373 L408 500 L1653 500 L1653 373 L1141 373 L1141 20 Q1141 -46 1120.5 -79 Q1100 -112 1044 -129 Q989 -146 895.5 -149 Q802 -152 659 -152 Q653 -119 638.5 -81 Q624 -43 608 -12 Q719 -17 810.5 -16.5 Q902 -16 930 -14 Q959 -13 969 -5 Q979 3 979 25 L979 373 L408 373 ZM156 403 L156 768 L1898 768 L1898 403 L1755 403 L1755 647 L293 647 L293 403 L156 403 ZM1491 1010 L1491 1182 L559 1182 L559 1010 L1491 1010 ZM410 1290 L1649 1290 L1649 899 L410 899 L410 1290 ZM1151 1540 L1923 1540 L1923 1409 L129 1409 L129 1540 L975 1540 Q952 1577 926.5 1614 Q901 1651 874 1683 L1020 1724 Q1054 1684 1090 1633.5 Q1126 1583 1151 1540 Z" /><glyph glyph-name="cid10093" unicode="&#x4eae;" d="M1495 8 L1700 8 Q1729 8 1743.5 24 Q1758 40 1764 87.5 Q1770 135 1774 231 Q1798 213 1839.5 196.5 Q1881 180 1913 174 Q1905 56 1885 -8.5 Q1865 -73 1825.5 -98 Q1786 -123 1718 -123 L1473 -123 Q1343 -123 1301.5 -83 Q1260 -43 1260 68 L1260 365 L772 365 Q754 215 699.5 114 Q645 13 529 -52 Q413 -117 209 -158 Q200 -129 174 -90 Q148 -51 125 -31 Q282 -4 378.5 35.5 Q475 75 527 135.5 Q579 196 599.5 283.5 Q620 371 625 494 L1417 494 L1417 68 Q1417 29 1431.5 18.5 Q1446 8 1495 8 ZM166 416 L166 754 L1878 754 L1878 418 L1729 418 L1729 631 L311 631 L311 416 L166 416 ZM1487 991 L1487 1167 L567 1167 L567 991 L1487 991 ZM418 1276 L1645 1276 L1645 883 L418 883 L418 1276 ZM1155 1522 L1915 1522 L1915 1391 L129 1391 L129 1522 L983 1522 Q947 1608 893 1692 L1042 1726 Q1075 1680 1106.5 1622.5 Q1138 1565 1155 1522 Z" /><glyph glyph-name="cid10101" unicode="&#x4eb2;" d="M1800 1460 L1800 1329 L276 1329 L276 1460 L967 1460 Q945 1511 918 1569.5 Q891 1628 862 1677 L1010 1712 Q1047 1655 1082 1585.5 Q1117 1516 1137 1460 L1800 1460 ZM553 420 L700 375 Q628 246 524 125.5 Q420 5 315 -80 Q295 -60 256.5 -30.5 Q218 -1 190 14 Q296 90 394.5 196.5 Q493 303 553 420 ZM1313 350 L1438 426 Q1507 365 1582 291 Q1657 217 1721.5 144 Q1786 71 1825 12 L1692 -76 Q1655 -17 1592.5 58 Q1530 133 1456.5 210 Q1383 287 1313 350 ZM1898 846 L1106 846 L1106 633 L1866 633 L1866 496 L1106 496 L1106 20 Q1106 -46 1089 -78.5 Q1072 -111 1026 -129 Q982 -146 906.5 -150 Q831 -154 719 -154 Q713 -121 699 -82 Q685 -43 670 -12 Q751 -15 821.5 -15.5 Q892 -16 913 -14 Q936 -14 944 -6.5 Q952 1 952 23 L952 496 L197 496 L197 633 L952 633 L952 846 L152 846 L152 981 L653 981 Q633 1046 596.5 1127 Q560 1208 518 1274 L655 1309 Q701 1236 744.5 1149.5 Q788 1063 805 1001 L743 981 L1219 981 Q1260 1056 1304 1145 Q1348 1234 1374 1307 L1530 1274 Q1493 1202 1453.5 1125.5 Q1414 1049 1374 981 L1898 981 L1898 846 Z" /><glyph glyph-name="cid10115" unicode="&#x2f08;&#x4eba;" d="M938 1706 L1106 1706 Q1104 1651 1101.5 1575.5 Q1099 1500 1092 1409 Q1099 1348 1117.5 1242.5 Q1136 1137 1172.5 1004 Q1209 871 1270.5 727.5 Q1332 584 1426 444.5 Q1520 305 1653.5 186.5 Q1787 68 1968 -12 Q1936 -38 1905 -73.5 Q1874 -109 1858 -141 Q1666 -51 1525.5 81.5 Q1385 214 1287.5 369 Q1190 524 1127.5 683 Q1065 842 1028 985 Q993 831 931.5 673 Q870 515 774.5 364 Q679 213 541.5 81.5 Q404 -50 217 -150 Q197 -119 163.5 -87 Q130 -55 94 -31 Q307 77 452.5 224.5 Q598 372 690 541 Q782 710 832.5 882.5 Q883 1055 905 1213.5 Q927 1372 931.5 1500 Q936 1628 938 1706 Z" /><glyph glyph-name="cid10121" unicode="&#x4ebf;" d="M578 1708 L721 1663 Q681 1560 631.5 1456 Q582 1352 526 1253 L526 -154 L379 -154 L379 1018 Q327 943 271 873.5 Q215 804 158 745 Q145 773 118.5 822 Q92 871 72 897 Q172 995 266 1125.5 Q360 1256 439.5 1404.5 Q519 1553 578 1708 ZM1100 82 L1630 80 Q1684 80 1713.5 110.5 Q1743 141 1755.5 229.5 Q1768 318 1774 492 Q1803 475 1842 460.5 Q1881 446 1913 440 Q1904 280 1886 180 Q1868 80 1836 27 Q1804 -26 1752.5 -46 Q1701 -66 1624 -66 L1110 -66 Q929 -66 844.5 -1.5 Q760 63 760 174 Q760 206 767 243.5 Q774 281 799 335.5 Q824 390 877 471.5 Q930 553 1020.5 673 Q1111 793 1249.5 960.5 Q1388 1128 1585 1356 L801 1356 L801 1501 L1739 1501 L1776 1507 L1872 1454 Q1867 1448 1861 1442 Q1855 1436 1849 1430 Q1627 1179 1470.5 995.5 Q1314 812 1210.5 683.5 Q1107 555 1046 469.5 Q985 384 956 331 Q927 278 918 246 Q909 214 909 190 Q909 134 961.5 108 Q1014 82 1100 82 Z" /><glyph glyph-name="cid10122" unicode="&#x4ec0;&#xf9fd;" d="M598 1706 L741 1661 Q656 1442 541 1243 L541 -154 L391 -154 L391 1006 Q337 930 281 860.5 Q225 791 168 731 Q156 757 129 805 Q102 853 82 881 Q184 981 280.5 1113.5 Q377 1246 458.5 1397 Q540 1548 598 1706 ZM1948 1010 L1948 860 L1397 860 L1397 -158 L1243 -158 L1243 860 L672 860 L672 1010 L1243 1010 L1243 1692 L1397 1692 L1397 1010 L1948 1010 Z" /><glyph glyph-name="cid10123" unicode="&#x4ec1;" d="M1855 1368 L1855 1210 L797 1210 L797 1368 L1855 1368 ZM606 1708 L756 1661 Q710 1546 655 1432 Q600 1318 537 1210 L537 -154 L387 -154 L387 979 Q336 908 282 845 Q228 782 174 727 Q162 753 132.5 801 Q103 849 80 877 Q185 977 283.5 1110 Q382 1243 465 1395.5 Q548 1548 606 1708 ZM682 150 L1944 150 L1944 -8 L682 -8 L682 150 Z" /><glyph glyph-name="cid10129" unicode="&#x4ec5;" d="M606 1700 L756 1653 Q710 1541 655 1430 Q600 1319 537 1214 L537 -154 L387 -154 L387 989 Q332 912 273.5 843.5 Q215 775 154 717 Q140 744 111 792.5 Q82 841 59 868 Q169 968 271 1100.5 Q373 1233 459 1386 Q545 1539 606 1700 ZM1690 1346 L967 1346 Q1020 1101 1106 886.5 Q1192 672 1315 496 Q1444 663 1539 875 Q1634 1087 1690 1346 ZM1763 1497 L1862 1462 Q1803 1115 1686 845.5 Q1569 576 1409 375 Q1523 241 1665 139.5 Q1807 38 1980 -25 Q1954 -46 1925.5 -82 Q1897 -118 1882 -147 Q1709 -78 1567.5 25.5 Q1426 129 1311 262 Q1179 121 1026 18 Q873 -85 705 -156 Q691 -126 664 -89 Q637 -52 614 -31 Q780 31 933 134.5 Q1086 238 1217 381 Q1080 574 983 816 Q886 1058 821 1339 L850 1346 L748 1346 L748 1489 L1737 1489 L1763 1497 Z" /><glyph glyph-name="cid10131" unicode="&#x4ec6;" d="M596 1706 L745 1659 Q660 1437 541 1223 L541 -156 L387 -156 L387 973 Q333 896 275.5 825.5 Q218 755 160 692 Q147 720 120 770.5 Q93 821 70 850 Q175 953 273 1090 Q371 1227 454 1384 Q537 1541 596 1706 ZM1108 -152 L1108 1688 L1268 1688 L1268 -152 L1108 -152 ZM1282 1051 L1389 1157 Q1479 1079 1584 986.5 Q1689 894 1784.5 805.5 Q1880 717 1942 651 L1829 524 Q1770 593 1676.5 684.5 Q1583 776 1478 872.5 Q1373 969 1282 1051 Z" /><glyph glyph-name="cid10132" unicode="&#x4ec7;" d="M551 1708 L694 1665 Q654 1551 602 1440.5 Q550 1330 494 1223 L494 -158 L344 -158 L344 975 Q301 912 255.5 855 Q210 798 166 748 Q154 774 126 821.5 Q98 869 78 897 Q173 995 261 1125.5 Q349 1256 423.5 1404.5 Q498 1553 551 1708 ZM1692 10 L1761 10 Q1795 10 1808 20 Q1829 34 1835 84 Q1838 115 1840.5 179.5 Q1843 244 1843 332 Q1897 284 1968 264 Q1967 187 1961 106.5 Q1955 26 1946 -8 Q1936 -45 1921 -67 Q1906 -89 1884 -104 Q1861 -118 1831 -123.5 Q1801 -129 1772 -129 L1657 -129 Q1625 -129 1590.5 -120.5 Q1556 -112 1532 -90 Q1516 -75 1505.5 -54 Q1495 -33 1490 9 Q1485 51 1485 129 L1485 1090 L1143 1090 Q1127 824 1081 589.5 Q1035 355 934.5 163.5 Q834 -28 653 -164 Q636 -136 602 -103 Q568 -70 541 -53 Q709 69 802.5 243 Q896 417 938 631.5 Q980 846 993 1090 L641 1090 L641 1237 L997 1237 Q1000 1351 1000.5 1470 Q1001 1589 1001 1710 L1153 1710 Q1153 1589 1152 1470 Q1151 1351 1147 1237 L1636 1237 L1636 119 Q1636 34 1653 20 Q1670 10 1692 10 Z" /><glyph glyph-name="cid10138" unicode="&#x4eca;" d="M1608 711 L1634 721 L1751 664 Q1667 549 1556.5 406.5 Q1446 264 1327 116 Q1208 -32 1100 -164 L944 -92 Q1032 8 1126.5 123 Q1221 238 1311.5 351 Q1402 464 1477 559 L334 559 L334 711 L1608 711 ZM1296 858 L1188 752 Q1147 797 1081 856 Q1015 915 940.5 976 Q866 1037 801 1087 L903 1180 Q969 1133 1044 1075 Q1119 1017 1186.5 960 Q1254 903 1296 858 ZM1014 1726 L1157 1657 Q1148 1643 1137.5 1628 Q1127 1613 1118 1599 Q1221 1481 1364.5 1363 Q1508 1245 1666 1146 Q1824 1047 1968 983 Q1937 960 1904 919.5 Q1871 879 1849 848 Q1715 915 1568 1017 Q1421 1119 1281.5 1240 Q1142 1361 1030 1487 Q864 1289 645 1120 Q426 951 195 836 Q175 866 143.5 903.5 Q112 941 78 967 Q261 1051 437 1169.5 Q613 1288 762 1430 Q911 1572 1014 1726 Z" /><glyph glyph-name="cid10141" unicode="&#x4ecb;" d="M573 649 L573 909 L729 909 L729 647 Q729 545 715 437.5 Q701 330 655.5 224.5 Q610 119 519 21 Q428 -77 274 -160 Q256 -134 218.5 -101 Q181 -68 152 -49 Q294 25 379 111 Q464 197 505.5 288 Q547 379 560 470.5 Q573 562 573 649 ZM1335 -162 L1335 911 L1491 911 L1491 -162 L1335 -162 ZM1022 1724 L1143 1642 Q1135 1629 1126.5 1616 Q1118 1603 1110 1589 Q1203 1463 1344.5 1345.5 Q1486 1228 1653.5 1135.5 Q1821 1043 1993 993 Q1965 970 1934.5 928 Q1904 886 1884 854 Q1721 910 1563.5 1004 Q1406 1098 1267.5 1218 Q1129 1338 1024 1475 Q915 1336 775.5 1213 Q636 1090 479.5 991.5 Q323 893 162 829 Q146 862 121 903 Q96 944 70 973 Q213 1020 353.5 1098.5 Q494 1177 620.5 1277 Q747 1377 850 1491 Q953 1605 1022 1724 Z" /><glyph glyph-name="cid10144" unicode="&#x4ecd;" d="M475 1702 L614 1661 Q582 1558 541.5 1455 Q501 1352 455 1255 L455 -158 L309 -158 L309 983 Q269 917 226.5 855.5 Q184 794 141 741 Q131 769 104 818.5 Q77 868 57 897 Q142 995 220 1124.5 Q298 1254 363 1401.5 Q428 1549 475 1702 ZM1516 981 L1878 981 Q1878 981 1878 953 Q1878 925 1876 911 Q1859 583 1841.5 381.5 Q1824 180 1800.5 75 Q1777 -30 1741 -70 Q1710 -106 1675.5 -121.5 Q1641 -137 1587 -141 Q1540 -146 1459 -144.5 Q1378 -143 1284 -137 Q1283 -103 1269.5 -61.5 Q1256 -20 1235 10 Q1330 1 1411 -0.5 Q1492 -2 1528 -2 Q1557 -2 1576 3 Q1595 8 1612 25 Q1639 51 1659.5 139 Q1680 227 1696 397 Q1712 567 1726 842 L1337 842 Q1368 957 1402 1115 Q1436 1273 1462 1425 L1057 1425 Q1052 1215 1036.5 993 Q1021 771 978 558.5 Q935 346 852 160 Q769 -26 629 -164 Q607 -138 574 -108 Q541 -78 510 -61 Q643 64 720.5 237.5 Q798 411 836.5 612 Q875 813 887.5 1021.5 Q900 1230 903 1425 L666 1425 L666 1567 L1634 1567 Q1608 1427 1576.5 1270 Q1545 1113 1516 981 Z" /><glyph glyph-name="cid10146" unicode="&#x4ece;" d="M1047 444 L932 336 Q884 434 800.5 567 Q717 700 625 823 Q575 521 484 276.5 Q393 32 238 -154 Q218 -134 169.5 -101 Q121 -68 90 -49 Q258 128 350 385 Q442 642 483 965 Q524 1288 541 1665 L705 1659 Q695 1488 682.5 1328.5 Q670 1169 653 1022 Q729 932 805 828 Q881 724 944.5 623.5 Q1008 523 1047 444 ZM1321 1669 L1485 1661 Q1473 1478 1456.5 1311.5 Q1440 1145 1415 991 Q1443 863 1487 723 Q1531 583 1596 448.5 Q1661 314 1749.5 198.5 Q1838 83 1954 4 Q1931 -17 1896.5 -58.5 Q1862 -100 1843 -131 Q1719 -35 1626 99 Q1533 233 1466.5 384.5 Q1400 536 1356 684 Q1291 424 1183.5 216.5 Q1076 9 907 -147 Q887 -127 839 -93 Q791 -59 760 -41 Q964 129 1077.5 379.5 Q1191 630 1244.5 954 Q1298 1278 1321 1669 Z" /><glyph glyph-name="cid10153" unicode="&#x4ed3;" d="M1016 1716 L1159 1653 Q1148 1636 1136 1618 Q1124 1600 1112 1583 Q1292 1368 1510 1219.5 Q1728 1071 1978 954 Q1949 930 1920 894.5 Q1891 859 1876 825 Q1632 951 1422.5 1103 Q1213 1255 1030 1470 Q921 1334 788.5 1212.5 Q656 1091 510 989 L1559 989 Q1559 989 1557.5 963.5 Q1556 938 1556 920 Q1548 743 1538.5 633 Q1529 523 1514.5 462.5 Q1500 402 1479 377 Q1451 348 1417.5 335.5 Q1384 323 1339 319 Q1296 316 1219.5 317.5 Q1143 319 1059 324 Q1057 354 1047 392 Q1037 430 1022 459 Q1105 451 1176.5 448.5 Q1248 446 1276 446 Q1329 446 1350 467 Q1368 488 1380 574 Q1392 660 1401 846 L631 846 L631 162 Q631 114 646.5 88.5 Q662 63 706 54 Q750 45 836 45 L1423 45 Q1499 45 1537.5 68 Q1576 91 1592 157.5 Q1608 224 1616 354 Q1645 334 1689.5 316 Q1734 298 1769 291 Q1754 135 1723 49 Q1692 -37 1623.5 -70.5 Q1555 -104 1427 -104 L834 -104 Q695 -104 617 -82.5 Q539 -61 507 -4 Q475 53 475 160 L475 965 Q404 919 331 876.5 Q258 834 182 797 Q164 827 134 864.5 Q104 902 74 928 Q262 1011 440 1132 Q618 1253 766.5 1401.5 Q915 1550 1016 1716 Z" /><glyph glyph-name="cid10155" unicode="&#x4ed4;" d="M551 1712 L694 1667 Q604 1426 479 1200 L479 -158 L334 -158 L334 967 Q292 908 248.5 853.5 Q205 799 162 752 Q150 778 122 826 Q94 874 76 899 Q170 998 258.5 1128.5 Q347 1259 422 1407.5 Q497 1556 551 1712 ZM1958 831 L1958 684 L1380 684 L1380 45 Q1380 -29 1359 -67.5 Q1338 -106 1286 -123 Q1234 -141 1142 -145.5 Q1050 -150 913 -150 Q907 -117 892 -72.5 Q877 -28 860 4 Q968 1 1059.5 -0.5 Q1151 -2 1182 0 Q1209 2 1219 10.5 Q1229 19 1229 47 L1229 684 L643 684 L643 831 L1229 831 L1229 1126 Q1332 1182 1442 1262 Q1552 1342 1636 1425 L770 1425 L770 1569 L1774 1569 L1804 1577 L1909 1501 Q1806 1381 1662.5 1264 Q1519 1147 1380 1061 L1380 831 L1958 831 Z" /><glyph glyph-name="cid10157" unicode="&#x4ed6;" d="M551 1706 L690 1663 Q604 1441 483 1231 L483 -154 L334 -154 L334 997 Q285 928 233.5 865.5 Q182 803 131 750 Q119 774 92 821 Q65 868 45 893 Q145 991 239.5 1121.5 Q334 1252 414 1401 Q494 1550 551 1706 ZM1137 8 L1661 8 Q1723 8 1755 32 Q1787 56 1801.5 120 Q1816 184 1825 305 Q1852 285 1892 267 Q1932 249 1966 242 Q1953 101 1926 20 Q1899 -61 1839.5 -95 Q1780 -129 1667 -129 L1133 -129 Q1012 -129 943 -105.5 Q874 -82 845.5 -21 Q817 40 817 152 L817 817 L618 739 L559 872 L817 973 L817 1511 L967 1511 L967 1032 L1266 1149 L1266 1710 L1411 1710 L1411 1204 L1731 1327 L1749 1343 L1776 1366 L1880 1323 L1874 1296 Q1874 1112 1871.5 958 Q1869 804 1864 697 Q1859 590 1849 547 Q1837 476 1805.5 443 Q1774 410 1726 397 Q1685 387 1625.5 384 Q1566 381 1520 383 Q1517 417 1507 458 Q1497 499 1483 526 Q1524 523 1571 522.5 Q1618 522 1638 522 Q1666 522 1682.5 533 Q1699 544 1708 584 Q1720 625 1724.5 779.5 Q1729 934 1731 1174 L1411 1049 L1411 297 L1266 297 L1266 991 L967 872 L967 152 Q967 64 998 36 Q1029 8 1137 8 Z" /><glyph glyph-name="cid10159" unicode="&#x4ed7;" d="M606 1700 L754 1653 Q661 1432 537 1225 L537 -154 L387 -154 L387 999 Q329 921 267.5 850 Q206 779 141 719 Q131 745 101.5 793 Q72 841 49 868 Q160 968 264 1101 Q368 1234 456 1387 Q544 1540 606 1700 ZM1503 1137 L1503 1126 Q1503 993 1488.5 854 Q1474 715 1431 576.5 Q1388 438 1300 307 Q1425 184 1593.5 101 Q1762 18 1980 -25 Q1956 -51 1928 -90.5 Q1900 -130 1884 -162 Q1669 -111 1502 -24 Q1335 63 1206 186 Q1122 91 1001 3 Q880 -85 717 -162 Q701 -136 668.5 -98 Q636 -60 610 -37 Q778 38 898 126 Q1018 214 1100 307 Q997 439 923 601.5 Q849 764 799 963 L938 991 Q979 828 1041.5 687.5 Q1104 547 1192 430 Q1296 601 1324 779 Q1352 957 1352 1126 L1352 1137 L672 1137 L672 1282 L1352 1282 L1352 1704 L1503 1704 L1503 1282 L1956 1282 L1956 1137 L1503 1137 Z" /><glyph glyph-name="cid10160" unicode="&#x4ed8;" d="M606 1700 L756 1653 Q710 1538 656 1425 Q602 1312 539 1206 L539 -152 L387 -152 L387 971 Q338 902 285 839.5 Q232 777 180 723 Q166 749 137 797.5 Q108 846 86 872 Q190 972 287.5 1104.5 Q385 1237 466.5 1389 Q548 1541 606 1700 ZM1946 1260 L1946 1108 L1688 1108 L1688 51 Q1688 -35 1662 -75.5 Q1636 -116 1579 -133 Q1519 -152 1413 -155.5 Q1307 -159 1141 -158 Q1135 -129 1116.5 -84 Q1098 -39 1081 -8 Q1167 -11 1247 -12.5 Q1327 -14 1386.5 -13.5 Q1446 -13 1470 -12 Q1504 -9 1519 3.5 Q1534 16 1534 51 L1534 1108 L709 1108 L709 1260 L1534 1260 L1534 1690 L1688 1690 L1688 1260 L1946 1260 ZM1276 397 L1135 322 Q1104 385 1054 473 Q1004 561 947 655.5 Q890 750 838 831 L969 893 Q1022 814 1080.5 722.5 Q1139 631 1191 545.5 Q1243 460 1276 397 Z" /><glyph glyph-name="cid10162" unicode="&#x4ed9;" d="M549 1710 L692 1667 Q649 1553 598.5 1441 Q548 1329 489 1223 L489 -156 L344 -156 L344 985 Q256 857 158 750 Q147 776 119.5 823.5 Q92 871 72 897 Q167 996 255.5 1126.5 Q344 1257 419.5 1406 Q495 1555 549 1710 ZM1722 1249 L1872 1249 L1872 -154 L1722 -154 L1722 -29 L741 -29 L741 1241 L891 1241 L891 115 L1225 115 L1225 1679 L1376 1679 L1376 115 L1722 115 L1722 1249 Z" /><glyph glyph-name="cid10175" unicode="&#x4ee3;" d="M1907 1341 L1788 1260 Q1755 1306 1700.5 1365 Q1646 1424 1582.5 1484.5 Q1519 1545 1458 1595 L1569 1669 Q1630 1621 1695 1562.5 Q1760 1504 1816 1446 Q1872 1388 1907 1341 ZM643 1690 L786 1645 Q742 1537 686 1434 Q630 1331 567 1231 L567 -154 L414 -154 L414 1012 Q348 926 279 850.5 Q210 775 139 711 Q127 738 99 785 Q71 832 51 858 Q168 957 278.5 1090 Q389 1223 483 1376 Q577 1529 643 1690 ZM1946 1030 L1327 952 Q1362 681 1419 475.5 Q1476 270 1557.5 151.5 Q1639 33 1749 23 Q1794 19 1820 108.5 Q1846 198 1862 375 Q1885 353 1925.5 329.5 Q1966 306 1989 295 Q1966 120 1931.5 20.5 Q1897 -79 1852.5 -119 Q1808 -159 1755 -156 Q1587 -143 1473 -5.5 Q1359 132 1288 372 Q1217 612 1178 932 L686 870 L666 1014 L1161 1075 Q1149 1218 1138.5 1370 Q1128 1522 1122 1681 L1274 1681 Q1278 1526 1287.5 1378.5 Q1297 1231 1313 1096 L1925 1174 L1946 1030 Z" /><glyph glyph-name="cid10177" unicode="&#x4ee4;" d="M1634 782 L1745 713 Q1669 633 1574 536 Q1479 439 1376.5 336 Q1274 233 1176 137 Q1242 90 1300 43.5 Q1358 -3 1403 -41 L1286 -168 Q1217 -100 1105.5 -14.5 Q994 71 868.5 157 Q743 243 631 311 L739 420 Q812 378 891.5 326.5 Q971 275 1051 223 Q1155 323 1262 429.5 Q1369 536 1456 627 L348 627 L348 774 L1608 774 L1634 782 ZM1245 924 L1130 825 Q1100 870 1048.5 926 Q997 982 937.5 1038.5 Q878 1095 821 1141 L930 1227 Q985 1183 1046 1128.5 Q1107 1074 1160 1020.5 Q1213 967 1245 924 ZM1042 1720 L1182 1647 Q1168 1630 1154 1612.5 Q1140 1595 1126 1577 Q1232 1467 1377.5 1359.5 Q1523 1252 1681.5 1162.5 Q1840 1073 1985 1018 Q1957 993 1924.5 952 Q1892 911 1872 881 Q1736 943 1585 1036.5 Q1434 1130 1290.5 1242.5 Q1147 1355 1032 1473 Q859 1290 638 1136.5 Q417 983 188 877 Q170 904 140.5 940 Q111 976 80 1004 Q264 1081 445.5 1193.5 Q627 1306 782 1440.5 Q937 1575 1042 1720 Z" /><glyph glyph-name="cid10180" unicode="&#x4ee5;" d="M1212 1047 L1075 967 Q1047 1032 997 1117.5 Q947 1203 887 1291 Q827 1379 768 1454 L897 1522 Q957 1449 1018 1364 Q1079 1279 1130.5 1196 Q1182 1113 1212 1047 ZM496 340 L971 561 Q975 527 987.5 485.5 Q1000 444 1010 418 Q788 312 655 246.5 Q522 181 450.5 143.5 Q379 106 346.5 85 Q314 64 295 47 Q286 73 258.5 112 Q231 151 211 172 Q232 184 261 209.5 Q290 235 312 272 Q334 309 334 356 L334 1554 L496 1554 L496 340 ZM1970 -53 L1839 -152 Q1798 -86 1732 -3.5 Q1666 79 1586.5 167 Q1507 255 1425 336 Q1326 173 1179.5 49 Q1033 -75 825 -170 Q810 -145 774.5 -103.5 Q739 -62 713 -39 Q958 59 1115.5 205 Q1273 351 1363 554.5 Q1453 758 1496 1025.5 Q1539 1293 1556 1632 L1716 1624 Q1695 1260 1646.5 974.5 Q1598 689 1497 471 Q1585 387 1675.5 293 Q1766 199 1843.5 108.5 Q1921 18 1970 -53 Z" /><glyph glyph-name="cid10185" unicode="&#x4eea;" d="M1464 1260 L1335 1186 Q1316 1240 1279.5 1312.5 Q1243 1385 1198 1462 Q1153 1539 1108 1606 L1229 1665 Q1275 1602 1321.5 1528 Q1368 1454 1406 1383.5 Q1444 1313 1464 1260 ZM551 1706 L694 1661 Q650 1549 596.5 1439 Q543 1329 483 1223 L483 -152 L338 -152 L338 997 Q289 927 236 864 Q183 801 131 745 Q120 772 93.5 820 Q67 868 45 893 Q145 991 239.5 1121.5 Q334 1252 414 1401 Q494 1550 551 1706 ZM1714 1595 L1864 1569 Q1799 1212 1691.5 908 Q1584 604 1389 365 Q1502 234 1647.5 136 Q1793 38 1972 -27 Q1946 -50 1913.5 -89.5 Q1881 -129 1864 -160 Q1686 -89 1541.5 13 Q1397 115 1280 244 Q1160 122 1004.5 21.5 Q849 -79 651 -158 Q637 -133 609.5 -98.5 Q582 -64 559 -41 Q760 34 915 134 Q1070 234 1188 358 Q1022 587 918 885 Q814 1183 750 1544 L895 1563 Q949 1240 1045 966.5 Q1141 693 1294 479 Q1469 705 1564 987.5 Q1659 1270 1714 1595 Z" /><glyph glyph-name="cid10188" unicode="&#x4eec;" d="M467 1702 L606 1663 Q575 1552 535 1441.5 Q495 1331 451 1227 L451 -156 L303 -156 L303 930 Q236 810 162 715 Q153 741 126.5 791.5 Q100 842 80 868 Q201 1023 301 1245 Q401 1467 467 1702 ZM696 -158 L696 1303 L844 1303 L844 -158 L696 -158 ZM780 1649 L899 1712 Q944 1651 991.5 1579.5 Q1039 1508 1079 1440 Q1119 1372 1143 1321 L1018 1249 Q996 1300 958 1370 Q920 1440 873 1513 Q826 1586 780 1649 ZM1880 1638 L1880 37 Q1880 -34 1861.5 -70 Q1843 -106 1798 -125 Q1752 -143 1672 -147.5 Q1592 -152 1473 -152 Q1468 -122 1453.5 -79.5 Q1439 -37 1423 -6 Q1511 -11 1586 -10.5 Q1661 -10 1686 -8 Q1712 -7 1721.5 3 Q1731 13 1731 39 L1731 1499 L1178 1499 L1178 1638 L1880 1638 Z" /><glyph glyph-name="cid10195" unicode="&#x4ef0;" d="M496 1714 L635 1673 Q601 1570 561 1466.5 Q521 1363 475 1264 L475 -158 L328 -158 L328 987 Q285 915 239.5 850.5 Q194 786 147 729 Q137 754 110.5 804 Q84 854 68 883 Q155 985 234.5 1118.5 Q314 1252 380.5 1404 Q447 1556 496 1714 ZM1149 1669 L1255 1556 Q1166 1518 1057 1480 Q948 1442 842 1413 L842 375 L1165 485 Q1167 456 1172 419 Q1177 382 1182 360 Q1035 304 945 267.5 Q855 231 806 209.5 Q757 188 733.5 174.5 Q710 161 696 150 Q687 173 664 207.5 Q641 242 623 260 Q647 277 674.5 317 Q702 357 702 426 L702 1495 Q822 1529 946.5 1577 Q1071 1625 1149 1669 ZM1886 1487 L1886 365 Q1886 305 1871 269 Q1856 233 1815 213 Q1775 195 1707.5 190.5 Q1640 186 1536 186 Q1533 217 1517.5 259 Q1502 301 1487 332 Q1562 329 1623 329.5 Q1684 330 1704 330 Q1739 330 1739 367 L1739 1352 L1405 1352 L1405 -158 L1260 -158 L1260 1487 L1886 1487 Z" /><glyph glyph-name="cid10205" unicode="&#x4ef6;" d="M553 1706 L696 1661 Q653 1549 602.5 1437 Q552 1325 494 1219 L494 -154 L348 -154 L348 983 Q304 917 255.5 857 Q207 797 160 743 Q149 771 121.5 819 Q94 867 74 893 Q169 992 258 1122.5 Q347 1253 423 1402 Q499 1551 553 1706 ZM1942 698 L1942 549 L1386 549 L1386 -158 L1235 -158 L1235 549 L651 549 L651 698 L1235 698 L1235 1147 L913 1147 Q881 1058 844 979 Q807 900 766 836 Q744 852 704 876 Q664 900 635 913 Q726 1039 788.5 1226.5 Q851 1414 887 1612 L1030 1581 Q1016 1509 999.5 1437.5 Q983 1366 963 1296 L1235 1296 L1235 1688 L1386 1688 L1386 1296 L1853 1296 L1853 1147 L1386 1147 L1386 698 L1942 698 Z" /><glyph glyph-name="cid10207" unicode="&#x4ef7;" d="M553 1712 L696 1669 Q656 1557 605 1445 Q554 1333 498 1227 L498 -156 L348 -156 L348 977 Q307 914 263 857.5 Q219 801 174 752 Q160 778 132 826 Q104 874 86 899 Q180 998 267 1129 Q354 1260 427.5 1409 Q501 1558 553 1712 ZM901 643 L901 920 L1053 920 L1053 641 Q1053 553 1041 449.5 Q1029 346 993 237 Q957 128 885.5 23.5 Q814 -81 694 -172 Q676 -146 644.5 -115 Q613 -84 584 -66 Q694 11 758 104 Q822 197 853 293.5 Q884 390 892.5 480.5 Q901 571 901 643 ZM1479 -152 L1479 924 L1632 924 L1632 -152 L1479 -152 ZM1221 1718 L1382 1690 Q1372 1668 1361 1644 Q1350 1620 1339 1597 Q1412 1475 1517 1356.5 Q1622 1238 1742 1139.5 Q1862 1041 1980 979 Q1954 959 1922.5 923.5 Q1891 888 1874 860 Q1765 924 1655 1018.5 Q1545 1113 1445 1226.5 Q1345 1340 1266 1462 Q1160 1289 1001.5 1125 Q843 961 625 831 Q611 859 582 894.5 Q553 930 530 950 Q712 1053 848 1182.5 Q984 1312 1076.5 1450.5 Q1169 1589 1221 1718 Z" /><glyph glyph-name="cid10211" unicode="&#x4efb;" d="M606 1712 L754 1667 Q708 1555 654 1446 Q600 1337 537 1233 L537 -158 L387 -158 L387 1008 Q271 850 145 731 Q135 759 105.5 807 Q76 855 51 883 Q163 982 266.5 1115 Q370 1248 457 1400.5 Q544 1553 606 1712 ZM1958 696 L1380 696 L1380 68 L1927 68 L1927 -80 L702 -80 L702 68 L1229 68 L1229 696 L625 696 L625 844 L1229 844 L1229 1384 Q1106 1363 981 1345 Q856 1327 739 1313 Q735 1340 720 1378 Q705 1416 692 1442 Q882 1466 1082 1500.5 Q1282 1535 1460 1576.5 Q1638 1618 1763 1663 L1876 1536 Q1772 1502 1645.5 1470.5 Q1519 1439 1380 1411 L1380 844 L1958 844 L1958 696 Z" /><glyph glyph-name="cid10215" unicode="&#x4efd;" d="M537 1706 L680 1665 Q642 1551 592.5 1440 Q543 1329 487 1223 L487 -158 L338 -158 L338 973 Q296 910 252 853 Q208 796 164 743 Q153 771 125.5 819 Q98 867 78 893 Q170 992 255 1122.5 Q340 1253 412 1402 Q484 1551 537 1706 ZM823 918 L1739 918 Q1739 918 1738.5 889.5 Q1738 861 1737 846 Q1722 535 1707 346 Q1692 157 1671 60 Q1650 -37 1618 -74 Q1590 -108 1558 -122.5 Q1526 -137 1483 -141 Q1444 -144 1380 -144 Q1316 -144 1245 -139 Q1244 -107 1233.5 -67 Q1223 -27 1204 2 Q1273 -4 1332.5 -6 Q1392 -8 1419 -8 Q1444 -8 1459.5 -3 Q1475 2 1489 18 Q1510 43 1527.5 123 Q1545 203 1559 360.5 Q1573 518 1585 774 L1225 774 Q1183 436 1069.5 208 Q956 -20 729 -160 Q714 -138 681 -102.5 Q648 -67 625 -47 Q838 70 940 274 Q1042 478 1073 774 L813 774 L813 905 Q781 868 748 835.5 Q715 803 678 772 Q666 798 636.5 840 Q607 882 584 905 Q743 1031 857 1227.5 Q971 1424 1034 1659 L1182 1628 Q1123 1422 1033 1240.5 Q943 1059 823 918 ZM1405 1647 L1540 1671 Q1583 1492 1642.5 1357 Q1702 1222 1785.5 1116 Q1869 1010 1985 918 Q1954 894 1924 860 Q1894 826 1880 791 Q1753 898 1663.5 1020.5 Q1574 1143 1512 1296 Q1450 1449 1405 1647 Z" /><glyph glyph-name="cid10220" unicode="&#x4eff;" d="M1450 1405 L1292 1362 Q1278 1422 1251 1511 Q1224 1600 1198 1675 L1348 1708 Q1375 1636 1405 1549.5 Q1435 1463 1450 1405 ZM549 1710 L696 1667 Q611 1436 489 1214 L489 -154 L342 -154 L342 977 Q299 914 253.5 856 Q208 798 164 748 Q152 775 123 823 Q94 871 74 899 Q169 997 257.5 1127.5 Q346 1258 421 1407 Q496 1556 549 1710 ZM1958 1206 L1174 1206 Q1170 1129 1166.5 1055 Q1163 981 1157 907 L1810 907 L1810 838 Q1795 529 1780 343.5 Q1765 158 1744 62.5 Q1723 -33 1692 -70 Q1662 -105 1627 -119 Q1592 -133 1544 -137 Q1500 -142 1424.5 -140 Q1349 -138 1268 -135 Q1266 -103 1253.5 -63 Q1241 -23 1223 6 Q1306 0 1377.5 -2 Q1449 -4 1479 -4 Q1508 -4 1525.5 1 Q1543 6 1556 23 Q1579 45 1596.5 124 Q1614 203 1627.5 358 Q1641 513 1653 764 L1143 764 Q1120 575 1071 404 Q1022 233 931 89.5 Q840 -54 692 -160 Q674 -134 641.5 -103 Q609 -72 580 -55 Q723 44 808 182 Q893 320 935.5 485.5 Q978 651 993.5 834 Q1009 1017 1014 1206 L666 1206 L666 1354 L1958 1354 L1958 1206 Z" /><glyph glyph-name="cid10225" unicode="&#x4f01;" d="M1120 551 L1120 43 L1903 43 L1903 -96 L170 -96 L170 43 L428 43 L428 799 L578 799 L578 43 L963 43 L963 1157 L1120 1157 L1120 688 L1712 688 L1712 551 L1120 551 ZM1020 1733 L1157 1667 Q1146 1650 1134 1634 Q1122 1618 1110 1602 Q1302 1377 1523 1235.5 Q1744 1094 1982 989 Q1956 965 1928 929.5 Q1900 894 1884 860 Q1651 974 1438 1119.5 Q1225 1265 1028 1495 Q862 1297 641.5 1133.5 Q421 970 180 862 Q163 891 134 926.5 Q105 962 76 989 Q264 1065 443 1179.5 Q622 1294 771.5 1435.5 Q921 1577 1020 1733 Z" /><glyph glyph-name="cid10240" unicode="&#x4f0d;" d="M559 1708 L700 1667 Q660 1560 610.5 1453.5 Q561 1347 506 1247 L506 -158 L358 -158 L358 1008 Q252 854 137 733 Q128 759 101.5 807 Q75 855 55 883 Q156 983 249.5 1115.5 Q343 1248 422.5 1399.5 Q502 1551 559 1708 ZM1610 770 L1190 770 Q1161 578 1128.5 396.5 Q1096 215 1067 72 L1540 72 Q1553 185 1566 310 Q1579 435 1590.5 554 Q1602 673 1610 770 ZM1690 72 L1960 72 L1960 -72 L614 -72 L614 72 L911 72 Q944 216 976 397 Q1008 578 1040 770 L723 770 L723 913 L1061 913 Q1081 1041 1099 1166.5 Q1117 1292 1133 1407 L702 1407 L702 1550 L1894 1550 L1894 1407 L1288 1407 Q1271 1292 1252.5 1166.5 Q1234 1041 1214 913 L1634 913 L1659 922 L1772 911 Q1764 797 1751 653.5 Q1738 510 1722 359.5 Q1706 209 1690 72 Z" /><glyph glyph-name="cid10243" unicode="&#x4f0f;" d="M1855 1298 L1733 1221 Q1709 1269 1669.5 1332 Q1630 1395 1582.5 1461 Q1535 1527 1489 1583 L1604 1651 Q1650 1595 1698.5 1531 Q1747 1467 1788.5 1406 Q1830 1345 1855 1298 ZM569 1710 L715 1665 Q630 1442 512 1237 L512 -156 L362 -156 L362 997 Q259 850 152 739 Q141 767 114 816 Q87 865 66 893 Q166 991 260 1122.5 Q354 1254 433.5 1404 Q513 1554 569 1710 ZM1935 963 L1358 963 Q1406 740 1487.5 548 Q1569 356 1687.5 209 Q1806 62 1966 -25 Q1938 -46 1905 -84.5 Q1872 -123 1853 -156 Q1646 -28 1507.5 192.5 Q1369 413 1284 700 Q1235 476 1109 254.5 Q983 33 735 -156 Q714 -131 678.5 -104 Q643 -77 610 -57 Q813 95 929 267.5 Q1045 440 1099.5 617.5 Q1154 795 1171 963 L645 963 L645 1112 L1182 1112 Q1183 1144 1183.5 1175 Q1184 1206 1184 1237 L1184 1710 L1335 1710 L1335 1237 Q1335 1206 1335 1175 Q1335 1144 1333 1112 L1935 1112 L1935 963 Z" /><glyph glyph-name="cid10244" unicode="&#x4f10;" d="M1808 1397 L1708 1300 Q1670 1339 1611.5 1391 Q1553 1443 1487.5 1497 Q1422 1551 1364 1597 L1460 1679 Q1519 1636 1585 1584.5 Q1651 1533 1710 1483.5 Q1769 1434 1808 1397 ZM606 1704 L752 1659 Q665 1437 539 1225 L539 -152 L387 -152 L387 989 Q336 919 282 856 Q228 793 174 737 Q162 762 133.5 809.5 Q105 857 84 883 Q188 982 285.5 1113.5 Q383 1245 465.5 1395.5 Q548 1546 606 1704 ZM1698 971 L1843 918 Q1762 759 1657 622 Q1552 485 1427 367 Q1490 193 1568 94.5 Q1646 -4 1731 -4 Q1774 -4 1796 78.5 Q1818 161 1829 356 Q1855 333 1892.5 310 Q1930 287 1962 276 Q1948 108 1921 13.5 Q1894 -81 1845.5 -119.5 Q1797 -158 1718 -158 Q1588 -158 1483.5 -47 Q1379 64 1300 256 Q1046 54 733 -84 Q718 -56 686.5 -16 Q655 24 631 45 Q803 113 959.5 202.5 Q1116 292 1249 406 Q1208 538 1177 693 Q1146 848 1124 1020 L625 967 L610 1110 L1110 1159 Q1098 1288 1090.5 1421 Q1083 1554 1081 1690 L1237 1690 Q1237 1421 1262 1176 L1901 1241 L1913 1100 L1278 1034 Q1312 748 1378 524 Q1474 621 1555 733.5 Q1636 846 1698 971 Z" /><glyph glyph-name="cid10245" unicode="&#x4f11;" d="M604 1700 L756 1653 Q661 1423 532 1214 L532 -154 L383 -154 L383 995 Q266 841 141 725 Q131 753 101 802 Q71 851 49 879 Q162 976 266 1106 Q370 1236 457 1387.5 Q544 1539 604 1700 ZM1946 1047 L1442 1047 Q1507 884 1596.5 727.5 Q1686 571 1789 440 Q1892 309 1999 223 Q1971 202 1937 166.5 Q1903 131 1884 100 Q1785 193 1689 322.5 Q1593 452 1507.5 606 Q1422 760 1354 924 L1354 -158 L1204 -158 L1204 881 Q1101 641 961.5 432.5 Q822 224 672 92 Q650 118 616.5 153.5 Q583 189 557 209 Q668 296 773.5 428.5 Q879 561 969.5 720.5 Q1060 880 1124 1047 L629 1047 L629 1194 L1204 1194 L1204 1686 L1354 1686 L1354 1194 L1946 1194 L1946 1047 Z" /><glyph glyph-name="cid10253" unicode="&#x4f17;" d="M1049 289 L942 180 Q893 245 807 331.5 Q721 418 629 498 Q569 295 473.5 134 Q378 -27 240 -143 Q220 -123 178 -94 Q136 -65 109 -49 Q317 111 424 373.5 Q531 636 569 983 L723 967 Q702 797 668 645 Q739 589 812 525 Q885 461 947.5 399.5 Q1010 338 1049 289 ZM1305 973 L1458 954 Q1450 885 1441 820 Q1432 755 1419 690 Q1456 567 1523.5 433.5 Q1591 300 1693.5 183.5 Q1796 67 1937 -6 Q1913 -28 1881 -68 Q1849 -108 1831 -137 Q1717 -71 1628 25 Q1539 121 1473 232 Q1407 343 1362 455 Q1302 258 1207.5 105.5 Q1113 -47 975 -158 Q956 -138 914 -107.5 Q872 -77 846 -61 Q1064 95 1167.5 355 Q1271 615 1305 973 ZM1012 1724 L1159 1665 Q1135 1613 1104 1567 Q1192 1440 1326 1326 Q1460 1212 1623 1124.5 Q1786 1037 1960 991 Q1934 968 1903 927.5 Q1872 887 1853 858 Q1692 909 1540 997.5 Q1388 1086 1257.5 1202 Q1127 1318 1030 1452 Q883 1248 673.5 1094.5 Q464 941 211 844 Q194 876 164.5 916.5 Q135 957 104 983 Q305 1050 480.5 1156.5 Q656 1263 792.5 1406 Q929 1549 1012 1724 Z" /><glyph glyph-name="cid10255" unicode="&#x4f18;" d="M1815 1360 L1702 1276 Q1674 1318 1628.5 1372 Q1583 1426 1530.5 1482 Q1478 1538 1427 1585 L1534 1661 Q1583 1616 1636.5 1561.5 Q1690 1507 1737.5 1454 Q1785 1401 1815 1360 ZM561 1708 L705 1665 Q660 1545 605.5 1427.5 Q551 1310 489 1198 L489 -156 L344 -156 L344 965 Q303 905 259 850 Q215 795 172 748 Q160 774 132 821.5 Q104 869 84 897 Q179 996 268 1126 Q357 1256 432 1404.5 Q507 1553 561 1708 ZM1939 1085 L1200 1085 Q1182 835 1130.5 604 Q1079 373 972 180.5 Q865 -12 680 -147 Q662 -120 629 -88.5 Q596 -57 567 -37 Q741 85 840.5 260 Q940 435 987 645.5 Q1034 856 1051 1085 L600 1085 L600 1231 L1061 1231 Q1065 1345 1067 1459.5 Q1069 1574 1069 1688 L1219 1688 Q1219 1574 1216.5 1459.5 Q1214 1345 1208 1231 L1939 1231 L1939 1085 ZM1524 39 L1731 39 Q1760 39 1776 62 Q1792 85 1798.5 152.5 Q1805 220 1808 354 Q1833 334 1873 316 Q1913 298 1944 289 Q1936 136 1917.5 51.5 Q1899 -33 1858 -66.5 Q1817 -100 1743 -100 L1505 -100 Q1385 -100 1344 -55 Q1303 -10 1303 115 L1303 926 L1452 926 L1452 115 Q1452 69 1465 54 Q1478 39 1524 39 Z" /><glyph glyph-name="cid10257" unicode="&#x4f19;" d="M1784 1335 L1948 1288 Q1913 1191 1872 1086.5 Q1831 982 1789 885 Q1747 788 1708 715 L1575 760 Q1611 835 1650.5 935.5 Q1690 1036 1725.5 1141.5 Q1761 1247 1784 1335 ZM817 678 L670 737 Q710 808 740.5 907 Q771 1006 792 1115.5 Q813 1225 823 1325 L969 1305 Q958 1200 938 1086 Q918 972 887.5 865.5 Q857 759 817 678 ZM563 1710 L709 1663 Q669 1555 618 1447.5 Q567 1340 510 1239 L510 -154 L356 -154 L356 989 Q310 925 262 865.5 Q214 806 166 754 Q158 770 142 799.5 Q126 829 108.5 858.5 Q91 888 78 905 Q175 1002 265.5 1131.5 Q356 1261 432.5 1408.5 Q509 1556 563 1710 ZM1214 1696 L1374 1696 Q1374 1476 1371.5 1280.5 Q1369 1085 1354 913 Q1388 677 1459 491 Q1530 305 1656 177.5 Q1782 50 1978 -12 Q1952 -35 1922.5 -75.5 Q1893 -116 1878 -150 Q1641 -60 1502.5 111.5 Q1364 283 1292 535 Q1229 303 1093 131 Q957 -41 702 -154 Q686 -124 656 -89 Q626 -54 598 -31 Q790 51 909 166.5 Q1028 282 1092 433.5 Q1156 585 1181.5 774.5 Q1207 964 1210.5 1194 Q1214 1424 1214 1696 Z" /><glyph glyph-name="cid10260" unicode="&#x4f1a;" d="M190 543 L190 690 L1872 690 L1872 543 L979 543 Q884 417 778 296.5 Q672 176 561 78 L1491 147 Q1436 212 1374 275.5 Q1312 339 1253 393 L1382 463 Q1474 381 1563.5 286 Q1653 191 1727.5 98 Q1802 5 1847 -72 L1712 -156 Q1691 -119 1662 -75.5 Q1633 -32 1599 12 Q1275 -14 1058 -32 Q841 -50 706 -61.5 Q571 -73 497 -81.5 Q423 -90 386.5 -97 Q350 -104 328 -113 Q320 -88 304.5 -38.5 Q289 11 276 45 Q309 51 345.5 79 Q382 107 428 152 Q457 175 512.5 233 Q568 291 637 371.5 Q706 452 772 543 L190 543 ZM1032 1712 L1178 1649 Q1162 1629 1147 1608 Q1132 1587 1118 1567 Q1211 1471 1346.5 1370.5 Q1482 1270 1641.5 1182.5 Q1801 1095 1966 1038 Q1940 1015 1909 975 Q1878 935 1860 903 Q1701 968 1547 1062 Q1393 1156 1259.5 1261 Q1126 1366 1030 1464 Q837 1253 569 1081 L1516 1081 L1516 940 L543 940 L543 1065 Q463 1014 378.5 968.5 Q294 923 205 883 Q188 910 154 950 Q120 990 94 1012 Q293 1097 473 1207.5 Q653 1318 797 1446.5 Q941 1575 1032 1712 Z" /><glyph glyph-name="cid10265" unicode="&#x4f1e;" d="M1098 1208 L1098 457 L1933 457 L1933 309 L1098 309 L1098 -158 L944 -158 L944 309 L109 309 L109 457 L944 457 L944 1208 L1098 1208 ZM414 979 L541 1034 Q586 970 630 894.5 Q674 819 709 746 Q744 673 762 616 L627 553 Q610 609 576.5 683 Q543 757 500.5 834.5 Q458 912 414 979 ZM1505 1034 L1653 979 Q1593 870 1523 752 Q1453 634 1393 551 L1276 604 Q1315 660 1358 736 Q1401 812 1440 890.5 Q1479 969 1505 1034 ZM1051 1724 L1171 1657 Q1156 1638 1141.5 1621 Q1127 1604 1112 1587 Q1307 1421 1528.5 1312.5 Q1750 1204 1987 1124 Q1959 1100 1930.5 1062.5 Q1902 1025 1886 991 Q1654 1079 1438 1196 Q1222 1313 1016 1493 Q842 1330 619 1197 Q396 1064 172 977 Q155 1008 127 1046 Q99 1084 70 1110 Q254 1174 438.5 1268 Q623 1362 782.5 1478 Q942 1594 1051 1724 Z" /><glyph glyph-name="cid10266" unicode="&#x4f1f;" d="M563 1706 L707 1663 Q664 1548 612 1434.5 Q560 1321 502 1212 L502 -160 L354 -160 L354 973 Q311 910 265.5 853 Q220 796 174 743 Q162 771 135 818.5 Q108 866 88 891 Q183 991 272 1122 Q361 1253 435.5 1402 Q510 1551 563 1706 ZM1331 694 L1929 694 Q1929 694 1928 670 Q1927 646 1925 631 Q1913 446 1900 330.5 Q1887 215 1870 152.5 Q1853 90 1831 66 Q1809 39 1783.5 28 Q1758 17 1724 14 Q1697 10 1650 9.5 Q1603 9 1550 12 Q1547 43 1538 80.5 Q1529 118 1513 145 Q1563 141 1602.5 140 Q1642 139 1661 139 Q1698 139 1716 158 Q1735 182 1750.5 269.5 Q1766 357 1780 551 L1331 551 L1331 -156 L1186 -156 L1186 551 L627 551 L627 694 L1186 694 L1186 930 L739 930 L739 1071 L1186 1071 L1186 1298 L688 1298 L688 1442 L1186 1442 L1186 1712 L1331 1712 L1331 1442 L1878 1442 L1878 1298 L1331 1298 L1331 1071 L1819 1071 L1819 930 L1331 930 L1331 694 Z" /><glyph glyph-name="cid10267" unicode="&#x4f20;" d="M549 1706 L692 1661 Q603 1435 481 1221 L481 -154 L332 -154 L332 989 Q284 922 233 860.5 Q182 799 131 745 Q119 772 92 819.5 Q65 867 43 893 Q143 991 237.5 1121.5 Q332 1252 412 1401 Q492 1550 549 1706 ZM1946 950 L1124 950 Q1104 886 1086 824 Q1068 762 1051 707 L1706 707 L1731 717 L1835 649 Q1743 542 1622 406 Q1501 270 1384 141 Q1450 92 1508 44 Q1566 -4 1608 -45 L1495 -158 Q1440 -99 1351 -25 Q1262 49 1159.5 124.5 Q1057 200 961 260 L1071 352 Q1119 323 1169 291 Q1219 259 1268 225 Q1346 310 1425.5 398 Q1505 486 1571 563 L844 563 Q873 643 904.5 742 Q936 841 969 950 L602 950 L602 1092 L1012 1092 Q1029 1151 1045.5 1213 Q1062 1275 1079 1335 L719 1335 L719 1477 L1118 1477 Q1132 1535 1146.5 1591.5 Q1161 1648 1174 1702 L1325 1681 Q1313 1634 1299 1581.5 Q1285 1529 1270 1477 L1853 1477 L1853 1335 L1233 1335 Q1216 1274 1199 1212.5 Q1182 1151 1163 1092 L1946 1092 L1946 950 Z" /><glyph glyph-name="cid10271" unicode="&#x4f24;" d="M553 1710 L698 1665 Q652 1548 597 1433 Q542 1318 479 1210 L479 -154 L334 -154 L334 987 Q286 921 236 859.5 Q186 798 135 745 Q124 773 96.5 821 Q69 869 47 897 Q147 995 241.5 1125.5 Q336 1256 416 1405 Q496 1554 553 1710 ZM1278 870 L1851 870 Q1851 870 1851 844 Q1851 818 1849 801 Q1840 514 1828.5 340 Q1817 166 1799.5 76 Q1782 -14 1753 -49 Q1725 -83 1691 -96.5 Q1657 -110 1610 -115 Q1564 -119 1484 -118 Q1404 -117 1317 -113 Q1315 -79 1302.5 -40 Q1290 -1 1270 29 Q1360 21 1439 18.5 Q1518 16 1548 16 Q1576 16 1594 21 Q1612 26 1626 43 Q1646 63 1659.5 136 Q1673 209 1683.5 352.5 Q1694 496 1702 729 L1262 729 Q1236 541 1177 373.5 Q1118 206 1006.5 69 Q895 -68 711 -164 Q695 -136 666 -102.5 Q637 -69 612 -49 Q779 34 881 153.5 Q983 273 1037 419 Q1091 565 1114 729 L707 729 L707 870 L1130 870 Q1138 944 1142 1018.5 Q1146 1093 1149 1169 L1298 1169 Q1295 1093 1290.5 1018.5 Q1286 944 1278 870 ZM1038 1411 L1898 1411 L1898 1266 L963 1266 Q912 1178 854.5 1102 Q797 1026 737 965 Q719 985 680 1013.5 Q641 1042 614 1059 Q739 1174 838 1346.5 Q937 1519 997 1708 L1143 1675 Q1121 1608 1095 1541 Q1069 1474 1038 1411 Z" /><glyph glyph-name="cid10278" unicode="&#x4f2a;" d="M1032 1315 L897 1245 Q869 1304 814.5 1384 Q760 1464 705 1530 L831 1589 Q888 1528 945.5 1450 Q1003 1372 1032 1315 ZM559 1706 L707 1661 Q664 1550 610 1441 Q556 1332 496 1229 L496 -154 L350 -154 L350 1001 Q252 863 145 754 Q133 781 106 829 Q79 877 57 901 Q158 999 251 1128 Q344 1257 423 1404.5 Q502 1552 559 1706 ZM1264 1184 L1886 1184 Q1886 1184 1885 1153 Q1884 1122 1884 1108 Q1873 811 1861 604 Q1849 397 1835 264 Q1821 131 1801.5 56 Q1782 -19 1755 -53 Q1723 -93 1687.5 -108.5 Q1652 -124 1602 -129 Q1552 -135 1472 -133.5 Q1392 -132 1305 -127 Q1300 -93 1287.5 -51.5 Q1275 -10 1255 20 Q1348 13 1425 11.5 Q1502 10 1536 10 Q1564 10 1583.5 15.5 Q1603 21 1618 41 Q1646 71 1665.5 175.5 Q1685 280 1700 487.5 Q1715 695 1729 1034 L1247 1034 Q1222 814 1159.5 596 Q1097 378 977.5 186.5 Q858 -5 662 -145 Q643 -118 609.5 -87.5 Q576 -57 547 -39 Q730 85 842.5 258 Q955 431 1014 630.5 Q1073 830 1098 1034 L649 1034 L649 1184 L1112 1184 Q1124 1322 1126.5 1452 Q1129 1582 1130 1696 L1284 1696 Q1283 1579 1279.5 1449.5 Q1276 1320 1264 1184 ZM1604 444 L1470 367 Q1448 416 1408 479 Q1368 542 1320 607 Q1272 672 1225 727 L1348 797 Q1396 742 1445.5 678.5 Q1495 615 1537 553.5 Q1579 492 1604 444 Z" /><glyph glyph-name="cid10285" unicode="&#x4f2f;" d="M569 1708 L715 1673 Q675 1540 621 1410.5 Q567 1281 506 1161 L506 -160 L356 -160 L356 911 Q313 848 266 791.5 Q219 735 170 684 Q156 709 126.5 751.5 Q97 794 76 817 Q237 975 365 1211 Q493 1447 569 1708 ZM901 94 L1645 94 L1645 578 L901 578 L901 94 ZM1645 1200 L901 1200 L901 727 L1645 727 L1645 1200 ZM1239 1343 L1798 1343 L1798 -137 L1645 -137 L1645 -57 L901 -57 L901 -152 L752 -152 L752 1343 L1083 1343 Q1116 1430 1145 1531.5 Q1174 1633 1192 1714 L1368 1686 Q1339 1601 1305 1510.5 Q1271 1420 1239 1343 Z" /><glyph glyph-name="cid10286" unicode="&#x4f30;" d="M551 1706 L694 1661 Q604 1431 479 1212 L479 -154 L334 -154 L334 991 Q286 922 234.5 860.5 Q183 799 131 743 Q120 771 93.5 819 Q67 867 45 893 Q145 990 239.5 1120.5 Q334 1251 414 1400.5 Q494 1550 551 1706 ZM1681 76 L1681 559 L934 559 L934 76 L1681 76 ZM1960 1118 L1378 1118 L1378 702 L1835 702 L1835 -150 L1681 -150 L1681 -70 L934 -70 L934 -158 L784 -158 L784 702 L1225 702 L1225 1118 L668 1118 L668 1266 L1225 1266 L1225 1714 L1378 1714 L1378 1266 L1960 1266 L1960 1118 Z" /><glyph glyph-name="cid10294" unicode="&#x4f34;" d="M1649 1593 L1786 1554 Q1737 1436 1672.5 1307 Q1608 1178 1552 1087 Q1529 1103 1489 1122.5 Q1449 1142 1423 1153 Q1483 1242 1543 1361.5 Q1603 1481 1649 1593 ZM1079 1157 L952 1085 Q926 1145 882 1222.5 Q838 1300 787.5 1381 Q737 1462 690 1532 L811 1589 Q860 1521 911.5 1442.5 Q963 1364 1007.5 1289 Q1052 1214 1079 1157 ZM483 1702 L623 1663 Q592 1560 553 1457 Q514 1354 471 1257 L471 -158 L326 -158 L326 969 Q286 900 243 836 Q200 772 156 717 Q145 743 119.5 793 Q94 843 74 870 Q158 974 234.5 1108 Q311 1242 374.5 1393.5 Q438 1545 483 1702 ZM1933 578 L1933 436 L1327 436 L1327 -156 L1176 -156 L1176 436 L588 436 L588 578 L1176 578 L1176 887 L672 887 L672 1030 L1176 1030 L1176 1714 L1327 1714 L1327 1030 L1849 1030 L1849 887 L1327 887 L1327 578 L1933 578 Z" /><glyph glyph-name="cid10297" unicode="&#x4f36;" d="M549 1706 L692 1661 Q648 1547 594.5 1437 Q541 1327 481 1221 L481 -154 L332 -154 L332 987 Q237 852 131 743 Q120 771 93.5 819 Q67 867 45 893 Q145 991 239.5 1121.5 Q334 1252 413.5 1401 Q493 1550 549 1706 ZM1686 766 L1794 696 Q1737 599 1655.5 494 Q1574 389 1486 292.5 Q1398 196 1321 123 Q1387 75 1445 28.5 Q1503 -18 1544 -55 L1436 -160 Q1376 -102 1281.5 -26.5 Q1187 49 1081 126.5 Q975 204 881 266 L983 356 Q1032 323 1087.5 286 Q1143 249 1200 209 Q1288 286 1388 398 Q1488 510 1565 616 L745 616 L745 758 L1659 758 L1686 766 ZM1083 1075 L1202 1137 Q1261 1083 1321 1016 Q1381 949 1415 903 L1292 823 Q1258 874 1198.5 945.5 Q1139 1017 1083 1075 ZM1219 1714 L1362 1669 Q1353 1651 1343.5 1632.5 Q1334 1614 1325 1597 Q1397 1480 1500.5 1364 Q1604 1248 1719.5 1151 Q1835 1054 1944 991 Q1919 968 1886 933 Q1853 898 1835 868 Q1735 935 1629.5 1032 Q1524 1129 1426.5 1243.5 Q1329 1358 1251 1477 Q1136 1297 979.5 1139.5 Q823 982 637 860 Q622 883 588.5 916.5 Q555 950 530 969 Q681 1062 813 1183.5 Q945 1305 1049 1441 Q1153 1577 1219 1714 Z" /><glyph glyph-name="cid10301" unicode="&#x4f38;" d="M584 1706 L727 1663 Q684 1549 630 1439 Q576 1329 516 1225 L516 -154 L369 -154 L369 993 Q319 924 267.5 860.5 Q216 797 164 743 Q152 771 125.5 819 Q99 867 78 893 Q178 991 272 1121.5 Q366 1252 445.5 1401 Q525 1550 584 1706 ZM1378 557 L1729 557 L1729 862 L1378 862 L1378 557 ZM887 557 L1225 557 L1225 862 L887 862 L887 557 ZM1225 1298 L887 1298 L887 1001 L1225 1001 L1225 1298 ZM1729 1298 L1378 1298 L1378 1001 L1729 1001 L1729 1298 ZM1378 1440 L1874 1440 L1874 315 L1729 315 L1729 416 L1378 416 L1378 -158 L1225 -158 L1225 416 L887 416 L887 305 L745 305 L745 1440 L1225 1440 L1225 1712 L1378 1712 L1378 1440 Z" /><glyph glyph-name="cid10307" unicode="&#x4f3c;" d="M1391 893 L1253 840 Q1235 922 1196 1032 Q1157 1142 1107 1259 Q1057 1376 1004 1479 L1126 1526 Q1183 1425 1236 1310.5 Q1289 1196 1330 1086.5 Q1371 977 1391 893 ZM483 1702 L623 1661 Q590 1561 549.5 1459.5 Q509 1358 463 1262 L463 -156 L317 -156 L317 989 Q273 914 223.5 845.5 Q174 777 125 717 Q114 744 88.5 793.5 Q63 843 45 870 Q133 973 215 1106.5 Q297 1240 365.5 1392 Q434 1544 483 1702 ZM893 334 L1262 578 Q1269 547 1282 509 Q1295 471 1305 446 Q1136 329 1033.5 256.5 Q931 184 875.5 142.5 Q820 101 794.5 78 Q769 55 754 37 Q741 63 715.5 106 Q690 149 672 172 Q693 189 718 233 Q743 277 743 346 L743 1573 L893 1573 L893 334 ZM1972 -20 L1831 -92 Q1802 14 1741.5 166 Q1681 318 1612 467 Q1547 278 1447 125.5 Q1347 -27 1198 -145 Q1181 -124 1142 -87.5 Q1103 -51 1075 -31 Q1240 87 1343.5 252 Q1447 417 1503.5 628 Q1560 839 1585.5 1096.5 Q1611 1354 1620 1657 L1774 1655 Q1761 1368 1738.5 1122.5 Q1716 877 1667 670 Q1727 556 1788.5 429 Q1850 302 1899 184.5 Q1948 67 1972 -20 Z" /><glyph glyph-name="cid10318" unicode="&#x4f46;" d="M1638 1024 L1638 1423 L961 1423 L961 1024 L1638 1024 ZM1638 473 L1638 883 L961 883 L961 473 L1638 473 ZM1798 1567 L1798 330 L805 330 L805 1567 L1798 1567 ZM573 1706 L721 1659 Q676 1547 622.5 1436 Q569 1325 508 1221 L508 -154 L358 -154 L358 989 Q309 920 256.5 857.5 Q204 795 152 739 Q139 767 112 817 Q85 867 63 895 Q165 992 260 1121.5 Q355 1251 435.5 1400 Q516 1549 573 1706 ZM633 68 L1970 68 L1970 -76 L633 -76 L633 68 Z" /><glyph glyph-name="cid10329" unicode="&#x4f4d;" d="M1411 1411 L1262 1366 Q1249 1431 1221.5 1523 Q1194 1615 1165 1692 L1309 1729 Q1336 1652 1366.5 1563 Q1397 1474 1411 1411 ZM1862 1343 L1862 1196 L758 1196 L758 1343 L1862 1343 ZM1180 211 L1030 168 Q1022 274 1001 424 Q980 574 951.5 736 Q923 898 891 1040 L1028 1071 Q1062 929 1092.5 769 Q1123 609 1145.5 462 Q1168 315 1180 211 ZM590 1706 L733 1663 Q692 1551 639 1442 Q586 1333 526 1229 L526 -154 L375 -154 L375 991 Q327 922 275.5 860.5 Q224 799 172 743 Q161 771 134.5 819 Q108 867 86 893 Q186 991 280.5 1121.5 Q375 1252 454.5 1401 Q534 1550 590 1706 ZM1528 74 L1946 74 L1946 -74 L672 -74 L672 74 L1386 74 Q1414 177 1442.5 304.5 Q1471 432 1497 569 Q1523 706 1544.5 839.5 Q1566 973 1581 1087 L1739 1059 Q1712 902 1677 725.5 Q1642 549 1603.5 379.5 Q1565 210 1528 74 Z" /><glyph glyph-name="cid10331" unicode="&#x4f4e;" d="M547 1706 L690 1665 Q611 1447 496 1231 L496 -154 L348 -154 L348 987 Q299 913 246 846 Q193 779 139 721 Q127 747 101 796.5 Q75 846 53 870 Q153 973 245 1106.5 Q337 1240 414.5 1393 Q492 1546 547 1706 ZM1182 270 L1292 305 Q1328 245 1365 174 Q1402 103 1432.5 35.5 Q1463 -32 1481 -82 L1362 -125 Q1347 -74 1317.5 -5.5 Q1288 63 1252.5 135.5 Q1217 208 1182 270 ZM915 932 L1370 932 Q1358 1053 1349.5 1184.5 Q1341 1316 1335 1454 Q1231 1433 1125.5 1414.5 Q1020 1396 915 1382 L915 932 ZM1942 788 L1530 788 Q1555 568 1593 400.5 Q1631 233 1679 137.5 Q1727 42 1784 39 Q1813 39 1832 115 Q1851 191 1864 334 Q1884 314 1918.5 289.5 Q1953 265 1974 256 Q1954 102 1924.5 16 Q1895 -70 1859.5 -104.5 Q1824 -139 1784 -139 Q1673 -137 1595 -20 Q1517 97 1465.5 305 Q1414 513 1384 788 L915 788 L915 41 L1204 113 Q1203 85 1204 47 Q1205 9 1208 -12 Q1069 -52 983 -78 Q897 -104 849.5 -120 Q802 -136 779 -146.5 Q756 -157 743 -166 Q739 -138 722 -99.5 Q705 -61 688 -37 Q714 -26 743 0 Q772 26 772 86 L772 1491 L774 1491 L772 1493 Q944 1519 1123 1553 Q1302 1587 1460 1626.5 Q1618 1666 1729 1708 L1858 1587 Q1775 1560 1679 1533.5 Q1583 1507 1479 1483 Q1483 1337 1492 1198 Q1501 1059 1513 932 L1942 932 L1942 788 Z" /><glyph glyph-name="cid10334" unicode="&#x4f4f;" d="M1438 1391 L1290 1333 Q1277 1377 1250 1436 Q1223 1495 1189.5 1557 Q1156 1619 1122 1671 L1260 1722 Q1312 1644 1363.5 1550.5 Q1415 1457 1438 1391 ZM588 1706 L733 1661 Q692 1549 638 1439 Q584 1329 524 1223 L524 -154 L373 -154 L373 985 Q325 918 273.5 856.5 Q222 795 170 741 Q159 767 131 817 Q103 867 82 893 Q183 991 277.5 1121.5 Q372 1252 451 1401 Q530 1550 588 1706 ZM1389 57 L1962 57 L1962 -88 L645 -88 L645 57 L1237 57 L1237 575 L766 575 L766 719 L1237 719 L1237 1169 L698 1169 L698 1315 L1933 1315 L1933 1169 L1389 1169 L1389 719 L1872 719 L1872 575 L1389 575 L1389 57 Z" /><glyph glyph-name="cid10340" unicode="&#x4f53;" d="M520 1706 L662 1663 Q625 1554 578 1444.5 Q531 1335 479 1231 L479 -154 L334 -154 L334 979 Q252 851 160 743 Q147 770 119.5 818.5 Q92 867 72 893 Q162 992 245 1122.5 Q328 1253 398.5 1402 Q469 1551 520 1706 ZM1946 1155 L1434 1155 Q1494 984 1581 820.5 Q1668 657 1772 520.5 Q1876 384 1987 295 Q1959 275 1925.5 240 Q1892 205 1872 174 Q1764 272 1665 414 Q1566 556 1482 724.5 Q1398 893 1335 1071 L1335 360 L1665 360 L1665 221 L1335 221 L1335 -145 L1188 -145 L1188 221 L854 221 L854 360 L1188 360 L1188 1057 Q1122 880 1036.5 714 Q951 548 852 408 Q753 268 645 170 Q625 196 593 230.5 Q561 265 535 285 Q646 374 751 512 Q856 650 944.5 816 Q1033 982 1096 1155 L614 1155 L614 1303 L1188 1303 L1188 1706 L1335 1706 L1335 1303 L1946 1303 L1946 1155 Z" /><glyph glyph-name="cid10342" unicode="&#x4f55;" d="M551 1712 L692 1667 Q654 1564 608 1459.5 Q562 1355 510 1255 L510 -154 L360 -154 L360 1006 Q316 935 267.5 873.5 Q219 812 170 758 Q159 784 131.5 832.5 Q104 881 86 905 Q179 1005 266 1134.5 Q353 1264 426 1412 Q499 1560 551 1712 ZM1253 946 L901 946 L901 514 L1253 514 L1253 946 ZM1395 379 L901 379 L901 238 L756 238 L756 1081 L1395 1081 L1395 379 ZM1964 1516 L1964 1368 L1815 1368 L1815 53 Q1815 -28 1791.5 -67 Q1768 -106 1714 -125 Q1657 -143 1555.5 -148.5 Q1454 -154 1305 -154 Q1300 -121 1283 -75.5 Q1266 -30 1249 2 Q1372 -3 1473 -2.5 Q1574 -2 1608 0 Q1640 2 1652.5 12.5 Q1665 23 1665 53 L1665 1368 L696 1368 L696 1516 L1964 1516 Z" /><glyph glyph-name="cid10350" unicode="&#x4f59;" d="M563 420 L705 369 Q614 246 487.5 124.5 Q361 3 242 -82 Q222 -62 186.5 -29 Q151 4 123 20 Q244 96 363 202.5 Q482 309 563 420 ZM1323 352 L1446 428 Q1524 368 1609 293.5 Q1694 219 1768 145.5 Q1842 72 1888 14 L1757 -78 Q1713 -17 1640.5 58.5 Q1568 134 1484.5 211 Q1401 288 1323 352 ZM1030 1733 L1149 1667 Q1140 1655 1130.5 1644.5 Q1121 1634 1112 1622 Q1295 1422 1515.5 1286.5 Q1736 1151 1993 1047 Q1967 1023 1937.5 987 Q1908 951 1892 915 Q1642 1029 1427.5 1171 Q1213 1313 1024 1522 Q913 1402 780 1292.5 Q647 1183 504 1090 L1552 1090 L1552 950 L1112 950 L1112 692 L1864 692 L1864 549 L1112 549 L1112 27 Q1112 -41 1092.5 -77 Q1073 -113 1024 -131 Q976 -150 897 -154.5 Q818 -159 698 -158 Q692 -125 673.5 -83 Q655 -41 637 -12 Q731 -15 808 -14.5 Q885 -14 909 -14 Q935 -13 944.5 -4.5 Q954 4 954 27 L954 549 L203 549 L203 692 L954 692 L954 950 L496 950 L496 1083 Q413 1030 329 981.5 Q245 933 164 895 Q145 923 118 958.5 Q91 994 61 1020 Q240 1097 421 1208.5 Q602 1320 761 1454 Q920 1588 1030 1733 Z" /><glyph glyph-name="cid10353" unicode="&#x4f5b;" d="M547 1706 L688 1663 Q602 1436 479 1225 L479 -154 L334 -154 L334 997 Q285 927 232 863.5 Q179 800 127 743 Q115 771 88.5 819 Q62 867 41 893 Q141 991 235 1121.5 Q329 1252 408.5 1401 Q488 1550 547 1706 ZM1124 610 L1362 610 L1362 879 L1128 879 L1128 768 Q1128 728 1127 688.5 Q1126 649 1124 610 ZM750 610 L985 610 Q991 687 991 768 L991 879 L795 879 Q784 809 773 740.5 Q762 672 750 610 ZM1128 1280 L1128 1012 L1362 1012 L1362 1280 L1128 1280 ZM1733 1280 L1499 1280 L1499 1012 L1733 1012 L1733 1280 ZM1499 610 L1929 610 Q1929 610 1929 589 Q1929 568 1927 551 Q1919 316 1907 208 Q1895 100 1868 68 Q1833 27 1767 18 Q1740 15 1689.5 15 Q1639 15 1585 18 Q1582 48 1573 84.5 Q1564 121 1550 147 Q1601 141 1642 140 Q1683 139 1702 139 Q1737 139 1753 156 Q1768 176 1776 246.5 Q1784 317 1790 477 L1499 477 L1499 -156 L1362 -156 L1362 477 L1110 477 Q1092 346 1043.5 229 Q995 112 903.5 13 Q812 -86 664 -164 Q648 -142 618.5 -111 Q589 -80 567 -61 Q764 41 852.5 179 Q941 317 969 477 L586 477 Q603 548 620.5 640 Q638 732 653.5 829 Q669 926 680 1012 L991 1012 L991 1280 L643 1280 L643 1411 L991 1411 L991 1690 L1128 1690 L1128 1411 L1362 1411 L1362 1690 L1499 1690 L1499 1411 L1870 1411 L1870 879 L1499 879 L1499 610 Z" /><glyph glyph-name="cid10354" unicode="&#x4f5c;" d="M588 1706 L733 1659 Q692 1548 638 1437.5 Q584 1327 524 1221 L524 -154 L373 -154 L373 985 Q325 918 273.5 856.5 Q222 795 170 741 Q163 759 147.5 788.5 Q132 818 114 847.5 Q96 877 82 893 Q183 991 277.5 1121.5 Q372 1252 451 1401 Q530 1550 588 1706 ZM1962 1227 L1331 1227 L1331 934 L1915 934 L1915 793 L1331 793 L1331 483 L1944 483 L1944 340 L1331 340 L1331 -156 L1178 -156 L1178 1227 L1036 1227 Q901 975 745 801 Q727 821 690 853 Q653 885 627 903 Q719 998 803 1124 Q887 1250 957 1394 Q1027 1538 1077 1688 L1223 1649 Q1198 1578 1169.5 1509 Q1141 1440 1110 1372 L1962 1372 L1962 1227 Z" /><glyph glyph-name="cid10361" unicode="&#x4f60;" d="M547 1706 L690 1663 Q646 1549 592.5 1439 Q539 1329 479 1225 L479 -152 L334 -152 L334 997 Q285 927 232 863.5 Q179 800 127 743 Q115 771 88.5 819 Q62 867 41 893 Q141 991 235 1121.5 Q329 1252 408.5 1401 Q488 1550 547 1706 ZM920 842 L1069 813 Q1020 612 942 428 Q864 244 770 117 Q749 135 708 160 Q667 185 639 201 Q736 317 807 488.5 Q878 660 920 842 ZM1786 1180 L1401 1180 L1401 29 Q1401 -36 1385 -72.5 Q1369 -109 1329 -127 Q1288 -147 1222 -152.5 Q1156 -158 1059 -158 Q1053 -125 1037 -80.5 Q1021 -36 1006 -4 Q1078 -7 1137.5 -6.5 Q1197 -6 1217 -6 Q1251 -6 1251 29 L1251 1180 L940 1180 Q852 971 741 827 Q723 844 684 875.5 Q645 907 621 924 Q733 1065 819.5 1272.5 Q906 1480 956 1704 L1106 1671 Q1060 1492 997 1321 L1827 1321 L1851 1327 L1956 1303 Q1936 1190 1911 1070 Q1886 950 1866 868 L1739 893 Q1748 948 1761 1024.5 Q1774 1101 1786 1180 ZM1550 813 L1683 858 Q1742 750 1794 626.5 Q1846 503 1884 385 Q1922 267 1939 174 L1794 125 Q1778 218 1741 337.5 Q1704 457 1654.5 581.5 Q1605 706 1550 813 Z" /><glyph glyph-name="cid10366" unicode="&#x4f63;" d="M547 1706 L690 1661 Q646 1547 592.5 1437 Q539 1327 479 1223 L479 -154 L334 -154 L334 997 Q285 927 232 863.5 Q179 800 127 743 Q115 771 88.5 819 Q62 867 41 893 Q141 991 235.5 1121 Q330 1251 409.5 1400 Q489 1549 547 1706 ZM1382 616 L1753 616 L1753 948 L1382 948 L1382 616 ZM883 616 L1237 616 L1237 948 L889 948 L889 825 Q889 727 883 616 ZM1237 1419 L889 1419 L889 1083 L1237 1083 L1237 1419 ZM1753 1083 L1753 1419 L1382 1419 L1382 1083 L1753 1083 ZM1898 1556 L1898 27 Q1898 -38 1882.5 -72.5 Q1867 -107 1827 -127 Q1785 -145 1716 -149.5 Q1647 -154 1544 -154 Q1540 -124 1526 -82.5 Q1512 -41 1497 -10 Q1572 -13 1633.5 -13.5 Q1695 -14 1716 -12 Q1753 -12 1753 29 L1753 481 L1382 481 L1382 -135 L1237 -135 L1237 481 L870 481 Q850 309 800 139.5 Q750 -30 647 -164 Q629 -141 593 -110.5 Q557 -80 532 -68 Q628 58 672.5 213 Q717 368 730 527 Q743 686 743 825 L743 1556 L1898 1556 Z" /><glyph glyph-name="cid10374" unicode="&#x4f69;" d="M449 1702 L584 1665 Q556 1562 520 1457.5 Q484 1353 442 1253 L442 -154 L305 -154 L305 969 Q267 901 227 838.5 Q187 776 145 721 Q136 747 111 797 Q86 847 66 874 Q188 1028 287.5 1247.5 Q387 1467 449 1702 ZM879 1151 L879 1276 L1556 1276 L1556 1151 L1290 1151 L1290 934 L1540 934 L1540 238 Q1540 199 1532 176 Q1524 153 1499 139 Q1476 124 1440.5 120.5 Q1405 117 1358 117 Q1347 170 1319 219 L1419 219 Q1438 219 1438 238 L1438 838 L1276 838 L1276 -135 L1171 -135 L1171 838 L1001 838 L1001 113 L899 113 L899 934 L1157 934 L1157 1151 L879 1151 ZM664 1610 L1784 1610 Q1781 1350 1779.5 1110 Q1778 870 1779.5 666.5 Q1781 463 1788 311 Q1795 159 1810.5 74.5 Q1826 -10 1851 -10 Q1863 -10 1870 38.5 Q1877 87 1880.5 166 Q1884 245 1884 336 Q1903 311 1927.5 285 Q1952 259 1970 244 Q1964 94 1951.5 7.5 Q1939 -79 1912.5 -115.5 Q1886 -152 1837 -152 Q1759 -152 1720 -34 Q1681 84 1667 301 Q1653 518 1652 817 Q1651 1116 1651 1479 L793 1479 L793 1051 Q793 922 786 768 Q779 614 760 450.5 Q741 287 704.5 130.5 Q668 -26 608 -158 Q591 -139 556 -115 Q521 -91 498 -82 Q554 46 587.5 192 Q621 338 637.5 489.5 Q654 641 659 785 Q664 929 664 1051 L664 1610 Z" /><glyph glyph-name="cid10389" unicode="&#x4f73;" d="M1214 1012 L1214 1303 L774 1303 L774 1446 L1214 1446 L1214 1714 L1366 1714 L1366 1446 L1825 1446 L1825 1303 L1366 1303 L1366 1012 L1917 1012 L1917 866 L674 866 L674 1012 L1214 1012 ZM553 1706 L696 1665 Q655 1550 604.5 1438 Q554 1326 498 1217 L498 -158 L348 -158 L348 969 Q307 907 263 850.5 Q219 794 176 743 Q164 771 136.5 819 Q109 867 90 893 Q183 992 269.5 1122.5 Q356 1253 428.5 1402 Q501 1551 553 1706 ZM1366 66 L1958 66 L1958 -82 L608 -82 L608 66 L1214 66 L1214 408 L731 408 L731 551 L1214 551 L1214 786 L1366 786 L1366 551 L1860 551 L1860 408 L1366 408 L1366 66 Z" /><glyph glyph-name="cid10410" unicode="&#x4f7f;" d="M571 1718 L715 1673 Q672 1566 618 1458 Q564 1350 504 1247 L504 -166 L358 -166 L358 1028 Q305 953 247.5 886 Q190 819 133 762 Q122 788 95.5 835.5 Q69 883 47 909 Q151 1007 248.5 1136.5 Q346 1266 429 1415 Q512 1564 571 1718 ZM860 715 L1223 715 Q1224 738 1224.5 761 Q1225 784 1225 807 L1225 1018 L860 1018 L860 715 ZM1751 1018 L1374 1018 L1374 807 Q1374 784 1374 761 Q1374 738 1372 715 L1751 715 L1751 1018 ZM1896 586 L1364 586 Q1352 480 1321 381 Q1290 282 1229 193 Q1382 108 1573 55 Q1764 2 1982 -25 Q1958 -49 1933 -88.5 Q1908 -128 1892 -162 Q1676 -130 1485.5 -69 Q1295 -8 1139 86 Q1062 11 949 -52.5 Q836 -116 676 -164 Q664 -139 636 -99.5 Q608 -60 584 -39 Q734 -1 839.5 52 Q945 105 1016 168 Q925 237 850.5 320 Q776 403 719 502 L846 543 Q892 463 957 395 Q1022 327 1104 270 Q1153 343 1178.5 422 Q1204 501 1214 586 L719 586 L719 1147 L1225 1147 L1225 1348 L659 1348 L659 1487 L1225 1487 L1225 1706 L1374 1706 L1374 1487 L1964 1487 L1964 1348 L1374 1348 L1374 1147 L1896 1147 L1896 586 Z" /><glyph glyph-name="cid10418" unicode="&#x4f84;" d="M1915 872 L1778 803 Q1762 834 1742.5 872 Q1723 910 1700 950 Q1451 934 1284 922.5 Q1117 911 1013.5 902.5 Q910 894 852.5 888 Q795 882 767 876 Q739 870 721 862 Q715 893 696.5 940 Q678 987 666 1012 Q695 1018 730 1032 Q765 1046 793 1075 Q813 1092 849 1135.5 Q885 1179 928.5 1236.5 Q972 1294 1014.5 1352 Q1057 1410 1090 1456 L707 1456 L707 1595 L1915 1595 L1915 1456 L1266 1456 Q1224 1396 1171 1322 Q1118 1248 1063.5 1174.5 Q1009 1101 961 1040 L1620 1079 Q1582 1141 1541 1201 Q1500 1261 1458 1313 L1585 1374 Q1647 1295 1710.5 1204 Q1774 1113 1828 1026 Q1882 939 1915 872 ZM537 1710 L682 1665 Q641 1550 589.5 1435.5 Q538 1321 479 1212 L479 -154 L330 -154 L330 967 Q290 907 246.5 852 Q203 797 160 748 Q149 774 121.5 821.5 Q94 869 74 897 Q167 996 253.5 1126.5 Q340 1257 412.5 1406 Q485 1555 537 1710 ZM1366 57 L1954 57 L1954 -84 L616 -84 L616 57 L1214 57 L1214 428 L739 428 L739 565 L1214 565 L1214 846 L1366 846 L1366 565 L1860 565 L1860 428 L1366 428 L1366 57 Z" /><glyph glyph-name="cid10430" unicode="&#x4f8b;" d="M440 1710 L578 1671 Q548 1570 513 1471.5 Q478 1373 438 1276 L438 -154 L295 -154 L295 985 Q260 925 224 871.5 Q188 818 150 770 Q142 795 118 844.5 Q94 894 74 924 Q190 1068 285 1277 Q380 1486 440 1710 ZM612 1456 L612 1599 L1319 1599 L1319 1456 L973 1456 Q945 1301 901 1149 L1163 1149 L1188 1153 L1276 1130 Q1225 644 1071 324.5 Q917 5 682 -160 Q668 -132 640 -97.5 Q612 -63 586 -43 Q809 97 956 410 Q909 454 849.5 504 Q790 554 737 596 L819 698 Q864 666 916.5 625.5 Q969 585 1012 547 Q1050 651 1078 766.5 Q1106 882 1124 1008 L858 1008 Q812 869 755 748.5 Q698 628 631 532 Q614 551 578 580.5 Q542 610 516 627 Q630 777 706.5 995 Q783 1213 829 1456 L612 1456 ZM1546 1477 L1546 340 L1409 340 L1409 1477 L1546 1477 ZM1743 1704 L1884 1704 L1884 49 Q1884 -22 1865.5 -58 Q1847 -94 1802 -113 Q1758 -131 1680.5 -136 Q1603 -141 1485 -141 Q1480 -111 1465.5 -67.5 Q1451 -24 1436 8 Q1525 5 1599 4.5 Q1673 4 1698 4 Q1722 6 1732.5 15.5 Q1743 25 1743 49 L1743 1704 Z" /><glyph glyph-name="cid10434" unicode="&#x4f8d;" d="M553 1706 L696 1663 Q652 1549 598.5 1437 Q545 1325 483 1219 L483 -154 L336 -154 L336 987 Q288 920 237 858.5 Q186 797 135 743 Q123 771 96 818.5 Q69 866 47 891 Q147 990 241.5 1120.5 Q336 1251 416 1400.5 Q496 1550 553 1706 ZM811 418 L938 487 Q987 434 1037.5 371 Q1088 308 1129 245.5 Q1170 183 1192 133 L1059 57 Q1036 106 995.5 170 Q955 234 906.5 299.5 Q858 365 811 418 ZM1960 909 L1661 909 L1661 684 L1946 684 L1946 545 L1661 545 L1661 29 Q1661 -40 1642.5 -74.5 Q1624 -109 1575 -127 Q1526 -145 1443 -149.5 Q1360 -154 1237 -154 Q1232 -121 1216.5 -80.5 Q1201 -40 1186 -8 Q1281 -11 1359.5 -11.5 Q1438 -12 1464 -10 Q1490 -9 1498.5 -1 Q1507 7 1507 29 L1507 545 L649 545 L649 684 L1507 684 L1507 909 L621 909 L621 1051 L1212 1051 L1212 1311 L748 1311 L748 1450 L1212 1450 L1212 1704 L1366 1704 L1366 1450 L1849 1450 L1849 1311 L1366 1311 L1366 1051 L1960 1051 L1960 909 Z" /><glyph glyph-name="cid10456" unicode="&#x4f9b;" d="M555 1708 L698 1663 Q655 1552 602 1441.5 Q549 1331 489 1225 L489 -154 L340 -154 L340 995 Q292 926 240.5 863.5 Q189 801 137 748 Q125 774 98 821.5 Q71 869 51 897 Q152 994 245.5 1124.5 Q339 1255 418.5 1404 Q498 1553 555 1708 ZM991 367 L1137 322 Q1060 188 954 62 Q848 -64 745 -152 Q726 -132 688.5 -101.5 Q651 -71 625 -57 Q729 23 828 135.5 Q927 248 991 367 ZM1454 293 L1573 360 Q1644 294 1714 215.5 Q1784 137 1843 61 Q1902 -15 1937 -76 L1808 -160 Q1775 -96 1717 -16.5 Q1659 63 1590.5 144 Q1522 225 1454 293 ZM1098 1130 L1098 631 L1497 631 L1497 1130 L1098 1130 ZM1645 631 L1960 631 L1960 481 L637 481 L637 631 L950 631 L950 1130 L686 1130 L686 1278 L950 1278 L950 1690 L1098 1690 L1098 1278 L1497 1278 L1497 1692 L1645 1692 L1645 1278 L1935 1278 L1935 1130 L1645 1130 L1645 631 Z" /><glyph glyph-name="cid10460" unicode="&#x4f9d;" d="M1405 1391 L1262 1337 Q1245 1400 1203.5 1492 Q1162 1584 1120 1661 L1253 1704 Q1298 1630 1341.5 1542 Q1385 1454 1405 1391 ZM551 1710 L694 1669 Q650 1548 595.5 1430 Q541 1312 479 1200 L479 -160 L334 -160 L334 967 Q292 908 248.5 853.5 Q205 799 162 750 Q150 776 122 823.5 Q94 871 76 899 Q170 998 258.5 1128 Q347 1258 422 1406.5 Q497 1555 551 1710 ZM1833 991 L1944 887 Q1848 801 1732.5 709.5 Q1617 618 1516 551 Q1608 380 1724.5 244 Q1841 108 1982 25 Q1955 3 1922.5 -34 Q1890 -71 1870 -98 Q1705 9 1575 180 Q1445 351 1347.5 568 Q1250 785 1184 1032 Q1141 969 1091.5 911.5 Q1042 854 991 799 L991 68 L1356 197 Q1359 166 1365.5 128 Q1372 90 1378 66 Q1210 3 1107 -36 Q1004 -75 947.5 -98.5 Q891 -122 864 -136.5 Q837 -151 821 -164 Q812 -139 787.5 -103.5 Q763 -68 743 -49 Q771 -29 806.5 13.5 Q842 56 842 127 L842 653 Q720 544 598 459 Q581 483 548.5 522.5 Q516 562 492 584 Q668 691 834 849 Q1000 1007 1118 1190 L614 1190 L614 1333 L1927 1333 L1927 1190 L1290 1190 L1284 1180 Q1316 1044 1360 914.5 Q1404 785 1458 664 Q1556 734 1659 825 Q1762 916 1833 991 Z" /><glyph glyph-name="cid10472" unicode="&#x4fa6;" d="M893 995 L893 299 L754 299 L754 1133 L1149 1133 L1149 1708 L1298 1708 L1298 1536 L1880 1536 L1880 1397 L1298 1397 L1298 1133 L1796 1133 L1796 303 L1651 303 L1651 995 L893 995 ZM565 1708 L709 1667 Q667 1555 613.5 1444 Q560 1333 500 1229 L500 -154 L354 -154 L354 1001 Q305 931 252 867.5 Q199 804 145 748 Q135 774 108 822.5 Q81 871 59 897 Q160 995 254 1125.5 Q348 1256 428 1404.5 Q508 1553 565 1708 ZM1194 578 L1194 858 L1339 858 L1339 575 Q1339 487 1317.5 390 Q1296 293 1230 196 Q1164 99 1035 9.5 Q906 -80 692 -154 Q680 -127 652.5 -91 Q625 -55 602 -35 Q807 28 926.5 104.5 Q1046 181 1103 263 Q1160 345 1177 425.5 Q1194 506 1194 578 ZM1343 164 L1427 264 Q1513 224 1610 170.5 Q1707 117 1794 60.5 Q1881 4 1937 -43 L1847 -158 Q1793 -109 1708.5 -50.5 Q1624 8 1528 64.5 Q1432 121 1343 164 Z" /><glyph glyph-name="cid10473" unicode="&#x4fa7;" d="M725 1468 L725 315 L602 315 L602 1583 L1292 1583 L1292 319 L1165 319 L1165 1468 L725 1468 ZM420 1712 L553 1677 Q525 1576 491 1475 Q457 1374 420 1276 L420 -152 L293 -152 L293 991 Q256 921 218.5 856.5 Q181 792 141 735 Q132 761 106.5 806.5 Q81 852 61 879 Q175 1035 268 1256 Q361 1477 420 1712 ZM1004 1329 L1004 637 Q1004 535 990 426.5 Q976 318 936.5 212 Q897 106 821 11.5 Q745 -83 621 -158 Q610 -138 584 -109.5 Q558 -81 541 -68 Q695 27 769 144.5 Q843 262 865 389 Q887 516 887 639 L887 1329 L1004 1329 ZM981 209 L1073 268 Q1121 217 1172.5 156.5 Q1224 96 1269 38.5 Q1314 -19 1341 -63 L1243 -137 Q1218 -91 1175 -30.5 Q1132 30 1081 93 Q1030 156 981 209 ZM1579 1520 L1579 301 L1456 301 L1456 1520 L1579 1520 ZM1755 1696 L1884 1696 L1884 20 Q1884 -41 1868 -73.5 Q1852 -106 1817 -123 Q1778 -141 1714.5 -146.5 Q1651 -152 1548 -152 Q1544 -124 1532 -86 Q1520 -48 1507 -18 Q1581 -20 1639.5 -20 Q1698 -20 1716 -20 Q1738 -19 1746.5 -11 Q1755 -3 1755 20 L1755 1696 Z" /><glyph glyph-name="cid10474" unicode="&#x4fa8;" d="M543 1704 L684 1661 Q594 1430 475 1221 L475 -156 L334 -156 L334 997 Q236 857 129 743 Q118 771 91.5 818.5 Q65 866 45 891 Q144 990 237 1120 Q330 1250 408 1399 Q486 1548 543 1704 ZM924 567 L924 682 L1071 682 L1071 563 Q1071 452 1041.5 321.5 Q1012 191 936 63 Q860 -65 721 -168 Q704 -145 668.5 -114 Q633 -83 610 -70 Q742 26 809.5 138 Q877 250 900.5 361.5 Q924 473 924 567 ZM1448 -154 L1448 680 L1597 680 L1597 -154 L1448 -154 ZM1911 1034 L1520 1034 Q1603 916 1727 814.5 Q1851 713 1980 657 Q1956 636 1927 603 Q1898 570 1880 543 Q1784 592 1688 669.5 Q1592 747 1508.5 841 Q1425 935 1368 1034 L1161 1034 Q1068 865 933 741 Q798 617 616 528 Q604 553 575 591.5 Q546 630 524 651 Q676 717 792.5 812.5 Q909 908 995 1034 L604 1034 L604 1171 L1071 1171 Q1102 1233 1125.5 1302 Q1149 1371 1167 1446 Q1064 1437 963 1429.5 Q862 1422 770 1417 Q767 1446 754 1482 Q741 1518 729 1544 Q897 1554 1078.5 1572 Q1260 1590 1424 1614.5 Q1588 1639 1704 1671 L1792 1544 Q1695 1518 1574 1497 Q1453 1476 1321 1462 Q1283 1300 1227 1171 L1911 1171 L1911 1034 Z" /><glyph glyph-name="cid10483" unicode="&#x4fae;" d="M473 1702 L612 1661 Q580 1561 543 1459.5 Q506 1358 463 1260 L463 -158 L317 -158 L317 973 Q278 902 234 838 Q190 774 145 717 Q135 744 109.5 793.5 Q84 843 66 870 Q148 973 224.5 1107 Q301 1241 364.5 1393 Q428 1545 473 1702 ZM1896 1343 L911 1343 Q861 1245 804 1157 Q747 1069 690 1001 Q667 1020 628 1045.5 Q589 1071 561 1083 Q670 1200 761 1368 Q852 1536 907 1714 L1053 1677 Q1036 1628 1016 1579 Q996 1530 975 1483 L1896 1483 L1896 1343 ZM1087 528 L1176 588 Q1246 536 1317.5 467 Q1389 398 1425 340 L1329 274 Q1295 330 1226 401.5 Q1157 473 1087 528 ZM870 274 L1626 274 Q1634 336 1640.5 414.5 Q1647 493 1655 590 L915 590 Q905 505 893 425 Q881 345 870 274 ZM1221 1014 L973 1014 Q964 945 954.5 873 Q945 801 936 729 L1366 729 Q1334 781 1270.5 845 Q1207 909 1141 958 L1221 1014 ZM1675 1014 L1233 1014 Q1299 966 1362.5 903.5 Q1426 841 1458 791 L1370 729 L1663 729 Q1666 794 1669 864 Q1672 934 1675 1014 ZM1966 590 L1796 590 Q1784 402 1772 274 L1909 274 L1909 139 L1755 139 Q1741 55 1724 5.5 Q1707 -44 1686 -70 Q1658 -106 1624 -121.5 Q1590 -137 1544 -141 Q1500 -144 1429.5 -144 Q1359 -144 1284 -139 Q1283 -110 1272.5 -73 Q1262 -36 1245 -8 Q1325 -16 1390.5 -17 Q1456 -18 1485 -18 Q1512 -20 1529.5 -14 Q1547 -8 1561 12 Q1586 38 1608 139 L700 139 Q719 230 738 347 Q757 464 774 590 L586 590 L586 729 L795 729 Q808 838 821.5 945 Q835 1052 844 1147 L1823 1147 Q1823 1147 1822 1118 Q1821 1089 1821 1075 Q1816 978 1812.5 892 Q1809 806 1804 729 L1966 729 L1966 590 Z" /><glyph glyph-name="cid10496" unicode="&#x4fb5;" d="M1784 1638 L1784 993 L778 993 L778 1108 L1640 1108 L1640 1257 L838 1257 L838 1374 L1640 1374 L1640 1522 L778 1522 L778 1638 L1784 1638 ZM555 1704 L698 1661 Q654 1547 600.5 1436 Q547 1325 485 1221 L485 -154 L340 -154 L340 995 Q291 926 239 861.5 Q187 797 135 743 Q123 771 96 819 Q69 867 49 893 Q150 991 243.5 1121 Q337 1251 417 1400 Q497 1549 555 1704 ZM1573 489 L1008 489 Q1058 407 1129.5 335 Q1201 263 1288 203 Q1376 260 1448.5 331 Q1521 402 1573 489 ZM1677 618 L1763 578 Q1708 435 1617 323.5 Q1526 212 1411 129 Q1633 12 1919 -35 Q1894 -56 1868.5 -93.5 Q1843 -131 1829 -160 Q1675 -129 1538 -78 Q1401 -27 1284 45 Q1150 -30 997 -79.5 Q844 -129 680 -160 Q669 -131 649 -93.5 Q629 -56 610 -33 Q759 -10 899.5 30 Q1040 70 1163 131 Q1071 203 996.5 289.5 Q922 376 866 477 L901 489 L813 489 L813 612 L1651 612 L1677 618 ZM637 864 L1935 864 L1935 561 L1800 561 L1800 750 L768 750 L768 559 L637 559 L637 864 Z" /><glyph glyph-name="cid10513" unicode="&#x4fbf;&#xf965;" d="M530 1706 L674 1663 Q634 1548 585 1433 Q536 1318 479 1210 L479 -154 L334 -154 L334 963 Q295 903 253 848 Q211 793 170 743 Q158 771 130 819 Q102 867 82 893 Q172 992 255.5 1122.5 Q339 1253 409.5 1402 Q480 1551 530 1706 ZM872 635 L1227 635 Q1228 661 1228.5 689 Q1229 717 1229 743 L1229 846 L872 846 L872 635 ZM872 1169 L872 958 L1229 958 L1229 1169 L872 1169 ZM1712 1169 L1378 1169 L1378 958 L1712 958 L1712 1169 ZM1712 635 L1712 846 L1378 846 L1378 743 Q1378 717 1377.5 689 Q1377 661 1374 635 L1712 635 ZM1862 516 L1362 516 Q1347 419 1311.5 328 Q1276 237 1208 154 Q1365 88 1559.5 49.5 Q1754 11 1978 -4 Q1954 -30 1929 -71 Q1904 -112 1888 -145 Q1658 -124 1459.5 -76.5 Q1261 -29 1100 49 Q1020 -14 908 -67.5 Q796 -121 645 -164 Q630 -138 603 -100 Q576 -62 553 -39 Q690 -7 792 34.5 Q894 76 967 127 Q878 184 803.5 256 Q729 328 674 416 L803 465 Q854 390 922.5 329 Q991 268 1077 219 Q1139 287 1170 361.5 Q1201 436 1214 516 L729 516 L729 1288 L1229 1288 L1229 1458 L676 1458 L676 1595 L1931 1595 L1931 1458 L1378 1458 L1378 1288 L1862 1288 L1862 516 Z" /><glyph glyph-name="cid10523" unicode="&#x4fc3;" d="M483 1706 L623 1667 Q590 1567 550.5 1468 Q511 1369 467 1272 L467 -158 L317 -158 L317 993 Q273 915 223.5 847 Q174 779 125 721 Q114 747 88.5 796 Q63 845 45 874 Q133 977 215 1110.5 Q297 1244 365.5 1396 Q434 1548 483 1706 ZM926 1483 L926 1063 L1665 1063 L1665 1483 L926 1483 ZM1372 471 L1372 51 Q1427 40 1485.5 36.5 Q1544 33 1606 33 Q1626 32 1674.5 32 Q1723 32 1781.5 32 Q1840 32 1891.5 32.5 Q1943 33 1970 33 Q1956 7 1941.5 -36.5 Q1927 -80 1921 -111 L1595 -111 Q1436 -111 1301.5 -82 Q1167 -53 1059 25 Q951 103 872 252 Q834 127 776 24 Q718 -79 643 -162 Q625 -143 585.5 -114 Q546 -85 520 -70 Q658 61 727.5 266 Q797 471 823 727 L969 713 Q954 573 926 446 Q975 304 1050.5 221.5 Q1126 139 1223 94 L1223 926 L780 926 L780 1620 L1815 1620 L1815 926 L1372 926 L1372 614 L1851 614 L1851 471 L1372 471 Z" /><glyph glyph-name="cid10534" unicode="&#x4fca;" d="M1382 1087 L1487 1161 Q1561 1107 1642.5 1042 Q1724 977 1797 913 Q1870 849 1917 799 L1804 713 Q1760 763 1689.5 829 Q1619 895 1538 963 Q1457 1031 1382 1087 ZM1872 1198 L1753 1124 Q1738 1149 1717 1177.5 Q1696 1206 1671 1237 Q1430 1219 1268 1206 Q1106 1193 1005 1184 Q904 1175 848.5 1168 Q793 1161 765.5 1155.5 Q738 1150 721 1143 Q715 1166 701.5 1209.5 Q688 1253 674 1282 Q701 1285 731 1306 Q761 1327 797 1358 Q822 1378 877.5 1433.5 Q933 1489 998 1564.5 Q1063 1640 1118 1722 L1264 1669 Q1187 1572 1103.5 1482 Q1020 1392 936 1317 L1571 1360 Q1528 1411 1482 1462.5 Q1436 1514 1393 1559 L1505 1624 Q1571 1559 1641.5 1481 Q1712 1403 1773 1328.5 Q1834 1254 1872 1198 ZM1004 1137 L1135 1081 Q1042 980 923.5 875 Q805 770 700 694 Q684 713 651.5 747.5 Q619 782 596 801 Q700 867 811 958 Q922 1049 1004 1137 ZM561 1712 L705 1667 Q662 1555 610 1443 Q558 1331 498 1225 L498 -154 L350 -154 L350 991 Q259 860 158 750 Q147 777 119.5 825 Q92 873 72 899 Q169 998 260 1129 Q351 1260 428.5 1409 Q506 1558 561 1712 ZM1016 547 L995 526 Q1043 451 1111 379.5 Q1179 308 1270 244 Q1357 305 1429.5 380.5 Q1502 456 1552 547 L1016 547 ZM1661 680 L1759 631 Q1701 483 1608.5 368 Q1516 253 1401 164 Q1513 102 1647 53.5 Q1781 5 1939 -23 Q1916 -46 1890.5 -83 Q1865 -120 1851 -150 Q1681 -114 1536.5 -54.5 Q1392 5 1274 80 Q1131 -6 966.5 -63 Q802 -120 627 -156 Q616 -126 592.5 -88.5 Q569 -51 549 -27 Q710 -1 862.5 48.5 Q1015 98 1149 170 Q998 290 903 432 Q856 388 807 346 Q758 304 711 270 Q694 290 661.5 323 Q629 356 604 375 Q744 465 876.5 598 Q1009 731 1094 877 L1229 827 Q1178 748 1122 674 L1634 674 L1661 680 Z" /><glyph glyph-name="cid10554" unicode="&#x4fd7;" d="M1921 1231 L1796 1139 Q1753 1200 1682.5 1283 Q1612 1366 1531 1452.5 Q1450 1539 1376 1612 L1493 1692 Q1566 1622 1647.5 1538.5 Q1729 1455 1802 1374 Q1875 1293 1921 1231 ZM1026 1690 L1169 1640 Q1113 1543 1041 1445.5 Q969 1348 891.5 1260 Q814 1172 741 1106 Q721 1126 682.5 1154.5 Q644 1183 616 1200 Q732 1291 842 1422.5 Q952 1554 1026 1690 ZM537 1706 L678 1663 Q593 1434 479 1225 L479 -156 L334 -156 L334 987 Q289 920 241 859 Q193 798 143 745 Q131 772 103.5 820 Q76 868 57 893 Q153 992 242 1122.5 Q331 1253 406.5 1402 Q482 1551 537 1706 ZM797 610 L1718 610 Q1582 707 1465.5 826 Q1349 945 1247 1106 Q1160 960 1045 834.5 Q930 709 797 610 ZM918 63 L1585 63 L1585 471 L918 471 L918 63 ZM1214 1354 L1350 1305 Q1342 1288 1334.5 1272 Q1327 1256 1319 1241 Q1449 1018 1615.5 875.5 Q1782 733 1985 629 Q1955 606 1927.5 571 Q1900 536 1886 504 Q1810 548 1735 598 L1735 -145 L1585 -145 L1585 -76 L918 -76 L918 -160 L772 -160 L772 592 Q740 569 705.5 547.5 Q671 526 637 506 Q620 535 592 569.5 Q564 604 535 629 Q681 703 811 814.5 Q941 926 1044.5 1063 Q1148 1200 1214 1354 Z" /><glyph glyph-name="cid10556" unicode="&#x4fd8;" d="M1776 1712 L1874 1591 Q1725 1550 1531 1521 Q1337 1492 1128.5 1473 Q920 1454 727 1444 Q724 1471 713 1507 Q702 1543 688 1569 Q831 1578 982.5 1591.5 Q1134 1605 1279.5 1623 Q1425 1641 1552.5 1663 Q1680 1685 1776 1712 ZM1604 1030 L1485 1081 Q1519 1135 1557 1204.5 Q1595 1274 1629.5 1346 Q1664 1418 1688 1479 L1829 1419 Q1775 1319 1715.5 1213 Q1656 1107 1604 1030 ZM1372 1104 L1235 1055 Q1220 1124 1188.5 1220.5 Q1157 1317 1126 1397 L1257 1436 Q1290 1357 1322.5 1264 Q1355 1171 1372 1104 ZM1028 1087 L899 1032 Q879 1097 836 1189 Q793 1281 752 1356 L877 1403 Q920 1329 963.5 1240.5 Q1007 1152 1028 1087 ZM522 1706 L662 1663 Q625 1551 578 1441 Q531 1331 479 1225 L479 -154 L332 -154 L332 969 Q293 907 251 851.5 Q209 796 168 745 Q156 772 128 819.5 Q100 867 80 893 Q169 993 251 1124 Q333 1255 402 1403.5 Q471 1552 522 1706 ZM1913 528 L1913 387 L1362 387 L1362 2 Q1362 -55 1348 -85 Q1334 -115 1292 -133 Q1252 -150 1189 -153 Q1126 -156 1032 -156 Q1028 -125 1013.5 -88.5 Q999 -52 985 -23 Q1053 -26 1108 -26 Q1163 -26 1180 -25 Q1214 -25 1214 4 L1214 387 L627 387 L627 528 L1214 528 L1214 641 Q1285 684 1361 744.5 Q1437 805 1501 866 L764 866 L764 1006 L1634 1006 L1667 1014 L1765 936 Q1686 847 1577.5 753.5 Q1469 660 1362 590 L1362 528 L1913 528 Z" /><glyph glyph-name="cid10562" unicode="&#x4fdd;" d="M569 1708 L713 1665 Q668 1554 616 1446.5 Q564 1339 504 1239 L504 -152 L358 -152 L358 1016 Q306 942 250.5 876 Q195 810 139 754 Q127 778 100 826.5 Q73 875 53 901 Q155 998 251 1127.5 Q347 1257 429 1405 Q511 1553 569 1708 ZM924 1481 L924 1106 L1683 1106 L1683 1481 L924 1481 ZM1948 578 L1462 578 Q1530 470 1618 369 Q1706 268 1804.5 185 Q1903 102 2001 49 Q1976 29 1944 -6.5 Q1912 -42 1892 -72 Q1754 17 1615.5 166.5 Q1477 316 1374 483 L1374 -158 L1223 -158 L1223 477 Q1115 308 970 163 Q825 18 676 -68 Q656 -40 625.5 -4 Q595 32 569 53 Q675 105 779 186.5 Q883 268 974.5 368.5 Q1066 469 1135 578 L629 578 L629 717 L1223 717 L1223 971 L780 971 L780 1618 L1835 1618 L1835 971 L1374 971 L1374 717 L1948 717 L1948 578 Z" /><glyph glyph-name="cid10572" unicode="&#x4fe1;" d="M1389 1448 L1251 1389 Q1231 1442 1189.5 1520 Q1148 1598 1110 1661 L1239 1714 Q1284 1650 1325.5 1576 Q1367 1502 1389 1448 ZM530 1706 L666 1665 Q630 1562 586.5 1460 Q543 1358 494 1262 L494 -164 L352 -164 L352 1016 Q306 942 256.5 876 Q207 810 158 752 Q147 776 120.5 821.5 Q94 867 74 893 Q166 992 250.5 1122.5 Q335 1253 406.5 1402 Q478 1551 530 1706 ZM1659 373 L891 373 L891 49 L1659 49 L1659 373 ZM758 -158 L758 500 L1794 500 L1794 -152 L1659 -152 L1659 -78 L891 -78 L891 -158 L758 -158 ZM786 672 L786 797 L1774 797 L1774 672 L786 672 ZM1774 1083 L1774 958 L786 958 L786 1083 L1774 1083 ZM639 1376 L1935 1376 L1935 1247 L639 1247 L639 1376 Z" /><glyph glyph-name="cid10583" unicode="&#x4fe9;" d="M455 1702 L590 1665 Q562 1568 528 1472 Q494 1376 457 1284 L457 -158 L315 -158 L315 985 Q239 841 150 723 Q139 749 113.5 796.5 Q88 844 68 870 Q189 1026 290.5 1246.5 Q392 1467 455 1702 ZM1384 1143 L1384 1432 L1151 1432 L1151 1143 L1384 1143 ZM1931 1432 L1511 1432 L1511 1143 L1872 1143 L1872 37 Q1872 -22 1858 -55 Q1844 -88 1802 -106 Q1761 -123 1691.5 -127 Q1622 -131 1524 -131 Q1519 -102 1505.5 -63.5 Q1492 -25 1479 4 Q1554 3 1617 3 Q1680 3 1702 4 Q1723 4 1730 11.5 Q1737 19 1737 39 L1737 1008 L1511 1008 Q1510 958 1506.5 903 Q1503 848 1497 793 Q1543 718 1587.5 635.5 Q1632 553 1667.5 476.5 Q1703 400 1722 344 L1626 258 Q1603 327 1561 420 Q1519 513 1468 608 Q1442 485 1391 366 Q1340 247 1255 145 Q1240 165 1212 193 Q1184 221 1161 238 Q1255 345 1302.5 479.5 Q1350 614 1366 752 Q1382 890 1384 1008 L1149 1008 Q1146 896 1130 770 Q1175 702 1216.5 631 Q1258 560 1278 512 L1194 422 Q1179 460 1154.5 510 Q1130 560 1100 612 Q1072 493 1020 376 Q968 259 887 158 Q871 181 843 209 Q815 237 791 254 Q884 360 931 491.5 Q978 623 995.5 757.5 Q1013 892 1016 1008 L788 1008 L788 -154 L649 -154 L649 1143 L1018 1143 L1018 1432 L608 1432 L608 1575 L1931 1575 L1931 1432 Z" /><glyph glyph-name="cid10587" unicode="&#x4fed;" d="M504 1708 L643 1667 Q567 1437 463 1225 L463 -154 L317 -154 L317 963 Q236 832 143 721 Q134 747 108 797 Q82 847 63 877 Q153 978 234.5 1111.5 Q316 1245 385 1397.5 Q454 1550 504 1708 ZM840 944 L840 1077 Q719 975 584 893 Q570 916 541.5 955 Q513 994 492 1016 Q708 1131 893.5 1315.5 Q1079 1500 1190 1724 L1323 1677 Q1314 1657 1303.5 1639.5 Q1293 1622 1284 1602 Q1364 1501 1480 1398 Q1596 1295 1724.5 1204.5 Q1853 1114 1972 1053 Q1951 1027 1928 987 Q1905 947 1894 918 Q1778 986 1653.5 1079 Q1529 1172 1414 1276.5 Q1299 1381 1210 1485 Q1132 1370 1038 1267.5 Q944 1165 840 1077 L1640 1077 L1640 944 L840 944 ZM1356 348 L1227 326 Q1221 390 1207 473 Q1193 556 1174 642.5 Q1155 729 1135 805 L1257 825 Q1278 750 1298 664 Q1318 578 1333.5 496 Q1349 414 1356 348 ZM717 743 L836 776 Q868 696 898.5 606.5 Q929 517 952.5 431.5 Q976 346 987 279 L864 240 Q853 308 830.5 395.5 Q808 483 778.5 574 Q749 665 717 743 ZM1671 797 L1812 758 Q1768 650 1715.5 531.5 Q1663 413 1607.5 299 Q1552 185 1499 92 L1905 92 L1905 -49 L575 -49 L575 92 L1360 92 Q1414 186 1472.5 309.5 Q1531 433 1583 561 Q1635 689 1671 797 Z" /><glyph glyph-name="cid10589" unicode="&#x4fee;" d="M487 1702 L627 1661 Q593 1558 552 1456 Q511 1354 465 1255 L465 -158 L317 -158 L317 981 Q273 907 225.5 841 Q178 775 129 715 Q118 741 93 791 Q68 841 49 870 Q137 972 219 1105 Q301 1238 369.5 1390.5 Q438 1543 487 1702 ZM629 164 L629 1145 L760 1145 L760 164 L629 164 ZM1704 1364 L1133 1364 Q1179 1289 1250 1215.5 Q1321 1142 1413 1077 Q1502 1136 1576 1207.5 Q1650 1279 1704 1364 ZM1806 1497 L1894 1452 Q1834 1312 1742 1201.5 Q1650 1091 1532 1008 Q1724 902 1982 850 Q1961 828 1936 791.5 Q1911 755 1898 727 Q1756 761 1633.5 812 Q1511 863 1411 926 Q1281 850 1134.5 799.5 Q988 749 836 715 Q825 741 804.5 776.5 Q784 812 764 831 Q904 858 1039.5 901.5 Q1175 945 1296 1010 Q1221 1068 1161 1131.5 Q1101 1195 1057 1260 Q1015 1203 969 1151.5 Q923 1100 877 1057 Q858 1075 822 1103.5 Q786 1132 760 1147 Q883 1250 988.5 1400 Q1094 1550 1157 1714 L1296 1679 Q1276 1632 1253.5 1583.5 Q1231 1535 1206 1491 L1782 1491 L1806 1497 ZM1620 588 L1737 539 Q1659 455 1547.5 384.5 Q1436 314 1305 260 Q1174 206 1036 170 Q1022 193 1000.5 220.5 Q979 248 956 268 Q1085 298 1212 345 Q1339 392 1445.5 453.5 Q1552 515 1620 588 ZM1425 791 L1542 741 Q1448 645 1305 568.5 Q1162 492 1016 442 Q1000 464 976.5 490 Q953 516 930 532 Q1021 560 1114.5 599.5 Q1208 639 1289.5 687.5 Q1371 736 1425 791 ZM1812 369 L1942 311 Q1840 190 1684.5 100.5 Q1529 11 1335.5 -51.5 Q1142 -114 926 -152 Q913 -124 891 -89.5 Q869 -55 846 -29 Q1052 0 1238 53.5 Q1424 107 1572 185.5 Q1720 264 1812 369 Z" /><glyph glyph-name="cid10591" unicode="&#x4fef;" d="M461 1702 L596 1663 Q567 1559 529.5 1454 Q492 1349 449 1247 L449 -154 L305 -154 L305 958 Q268 892 230 833.5 Q192 775 154 723 Q143 748 117.5 796 Q92 844 72 870 Q193 1026 295.5 1246.5 Q398 1467 461 1702 ZM1083 1321 L1212 1290 Q1194 1217 1169.5 1139.5 Q1145 1062 1114 987 L1114 -150 L983 -150 L983 717 Q932 630 874 557 Q864 582 844.5 616 Q825 650 811 672 Q878 756 931.5 867 Q985 978 1023.5 1096 Q1062 1214 1083 1321 ZM1767 1300 L1767 1016 L1942 1016 L1942 887 L1767 887 L1767 14 Q1767 -44 1752.5 -76 Q1738 -108 1700 -125 Q1661 -142 1598.5 -146 Q1536 -150 1438 -150 Q1433 -122 1421 -85 Q1409 -48 1395 -18 Q1465 -22 1522 -21 Q1579 -20 1597 -20 Q1617 -19 1625.5 -12.5 Q1634 -6 1634 14 L1634 887 L1206 887 L1206 1016 L1634 1016 L1634 1300 L1767 1300 ZM1554 332 L1442 274 Q1422 331 1390 404.5 Q1358 478 1320.5 555 Q1283 632 1247 698 L1354 748 Q1391 682 1430 606.5 Q1469 531 1502 459 Q1535 387 1554 332 ZM1399 1501 L1946 1501 L1946 1366 L778 1366 L778 840 Q778 730 773 602 Q768 474 752.5 340.5 Q737 207 707 81.5 Q677 -44 627 -150 Q608 -131 571 -107 Q534 -83 508 -74 Q569 59 597.5 219 Q626 379 633.5 540 Q641 701 641 840 L641 1501 L1247 1501 Q1229 1547 1206 1599 Q1183 1651 1163 1694 L1296 1729 Q1324 1675 1352 1613.5 Q1380 1552 1399 1501 Z" /><glyph glyph-name="cid10593" unicode="&#x4ff1;" d="M946 639 L946 453 L1612 453 L1612 639 L946 639 ZM1612 1509 L946 1509 L946 1335 L1612 1335 L1612 1509 ZM1612 932 L946 932 L946 750 L1612 750 L1612 932 ZM1612 1044 L1612 1225 L946 1225 L946 1044 L1612 1044 ZM598 453 L801 453 L801 1636 L1761 1636 L1761 453 L1950 453 L1950 315 L598 315 L598 453 ZM549 1710 L692 1667 Q649 1555 596 1444 Q543 1333 483 1229 L483 -154 L338 -154 L338 999 Q289 929 236 866 Q183 803 131 748 Q119 775 92 822.5 Q65 870 45 895 Q145 994 239 1125 Q333 1256 412.5 1405 Q492 1554 549 1710 ZM1028 287 L1149 205 Q1064 99 938.5 4 Q813 -91 682 -160 Q665 -137 637 -106 Q609 -75 586 -55 Q713 9 833.5 102 Q954 195 1028 287 ZM1417 193 L1513 285 Q1588 236 1672 175.5 Q1756 115 1830.5 55 Q1905 -5 1952 -53 L1849 -160 Q1804 -112 1731.5 -49.5 Q1659 13 1576 76.5 Q1493 140 1417 193 Z" /><glyph glyph-name="cid10644" unicode="&#x500d;" d="M1896 1485 L1896 1350 L717 1350 L717 1485 L1239 1485 Q1230 1535 1213.5 1594.5 Q1197 1654 1182 1706 L1319 1731 Q1342 1672 1362.5 1604.5 Q1383 1537 1391 1485 L1896 1485 ZM1120 973 L987 930 Q975 1004 940.5 1103 Q906 1202 864 1286 L989 1323 Q1034 1242 1069.5 1142.5 Q1105 1043 1120 973 ZM547 1710 L686 1665 Q645 1550 592 1435 Q539 1320 479 1212 L479 -158 L334 -158 L334 979 Q248 854 154 750 Q141 776 113.5 823.5 Q86 871 68 897 Q163 996 252 1126.5 Q341 1257 417 1406 Q493 1555 547 1710 ZM1630 457 L954 457 L954 70 L1630 70 L1630 457 ZM811 -156 L811 594 L1780 594 L1780 -150 L1630 -150 L1630 -68 L954 -68 L954 -156 L811 -156 ZM1565 911 L1958 911 L1958 772 L637 772 L637 911 L1419 911 Q1449 972 1480.5 1046 Q1512 1120 1539.5 1195 Q1567 1270 1585 1331 L1731 1294 Q1694 1201 1650 1097.5 Q1606 994 1565 911 Z" /><glyph glyph-name="cid10653" unicode="&#x5012;" d="M1581 1544 L1581 346 L1448 346 L1448 1544 L1581 1544 ZM463 1704 L598 1665 Q567 1561 527 1457 Q487 1353 442 1251 L442 -158 L301 -158 L301 979 Q260 907 214.5 840 Q169 773 123 715 Q114 742 89 792.5 Q64 843 47 872 Q131 975 208.5 1108.5 Q286 1242 351 1394 Q416 1546 463 1704 ZM1010 518 L1010 229 Q1096 246 1185 263.5 Q1274 281 1362 299 L1372 174 Q1151 128 931.5 83.5 Q712 39 545 2 L518 141 Q592 152 681 168 Q770 184 868 203 L868 518 L571 518 L571 647 L868 647 L868 877 L1010 877 L1010 647 L1329 647 L1329 518 L1010 518 ZM1051 1286 L1159 1331 Q1205 1268 1251.5 1194 Q1298 1120 1336 1049 Q1374 978 1395 924 L1282 868 Q1271 898 1255 932.5 Q1239 967 1219 1004 Q1034 976 922 958.5 Q810 941 749.5 930 Q689 919 662 911.5 Q635 904 621 897 Q614 920 599.5 961 Q585 1002 571 1030 Q594 1035 615 1058.5 Q636 1082 657 1116 Q677 1147 723.5 1237 Q770 1327 811 1436 L604 1436 L604 1567 L1354 1567 L1354 1436 L961 1436 Q921 1337 870.5 1240.5 Q820 1144 768 1063 L1159 1114 Q1132 1159 1104.5 1202.5 Q1077 1246 1051 1286 ZM1739 1655 L1878 1655 L1878 68 Q1878 -2 1858 -36 Q1838 -70 1792 -88 Q1744 -106 1667 -110.5 Q1590 -115 1470 -115 Q1464 -86 1447 -46.5 Q1430 -7 1413 23 Q1513 19 1590.5 19 Q1668 19 1694 20 Q1739 23 1739 68 L1739 1655 Z" /><glyph glyph-name="cid10665" unicode="&#x5018;" d="M1720 1647 L1864 1599 Q1796 1492 1715.5 1379 Q1635 1266 1565 1186 L1452 1233 Q1497 1287 1547.5 1360 Q1598 1433 1644 1508.5 Q1690 1584 1720 1647 ZM483 1702 L623 1663 Q558 1453 467 1243 L467 -158 L322 -158 L322 961 Q283 893 241 831.5 Q199 770 158 715 Q147 742 121.5 791.5 Q96 841 76 870 Q202 1026 309 1246.5 Q416 1467 483 1702 ZM1067 1251 L950 1182 Q924 1238 879.5 1309 Q835 1380 781.5 1453 Q728 1526 674 1587 L784 1647 Q841 1586 895.5 1515.5 Q950 1445 995 1376 Q1040 1307 1067 1251 ZM1405 649 L1122 649 L1122 338 L1405 338 L1405 649 ZM1530 217 L1122 217 L1122 111 L997 111 L997 770 L1530 770 L1530 217 ZM1851 1081 L1851 25 Q1851 -40 1834 -75 Q1817 -110 1774 -127 Q1726 -145 1649 -148.5 Q1572 -152 1452 -152 Q1447 -122 1433.5 -83 Q1420 -44 1403 -14 Q1494 -16 1566 -16 Q1638 -16 1661 -14 Q1704 -14 1704 25 L1704 944 L825 944 L825 -158 L682 -158 L682 1081 L1188 1081 L1188 1714 L1337 1714 L1337 1081 L1851 1081 Z" /><glyph glyph-name="cid10667" unicode="&#x5019;" d="M1939 1241 L1939 1110 L827 1110 L827 1241 L1565 1241 Q1577 1301 1586.5 1364.5 Q1596 1428 1606 1485 L942 1485 L942 1614 L1634 1614 L1659 1622 L1763 1610 Q1753 1519 1738.5 1423 Q1724 1327 1710 1241 L1939 1241 ZM477 1702 L616 1663 Q583 1548 540.5 1434.5 Q498 1321 449 1212 L449 -160 L303 -160 L303 932 Q268 872 231 817 Q194 762 156 715 Q146 741 120.5 791.5 Q95 842 74 868 Q200 1023 305 1244 Q410 1465 477 1702 ZM612 240 L612 1274 L745 1274 L745 240 L612 240 ZM1944 375 L1483 375 Q1509 302 1564 226 Q1619 150 1718.5 84.5 Q1818 19 1976 -20 Q1952 -44 1926 -79.5 Q1900 -115 1886 -145 Q1747 -105 1651.5 -42.5 Q1556 20 1494.5 95 Q1433 170 1395 246 Q1341 135 1217 29.5 Q1093 -76 864 -162 Q849 -136 821 -102.5 Q793 -69 768 -49 Q945 8 1052 78 Q1159 148 1214 224 Q1269 300 1290 375 L831 375 L831 508 L1311 508 Q1311 519 1311 529.5 Q1311 540 1311 551 L1311 774 L1085 774 Q1052 710 1013 653.5 Q974 597 934 551 Q914 566 877.5 590.5 Q841 615 815 631 Q898 715 963.5 839.5 Q1029 964 1069 1098 L1206 1065 Q1182 983 1147 903 L1876 903 L1876 774 L1460 774 L1460 549 Q1460 538 1460 528.5 Q1460 519 1460 508 L1944 508 L1944 375 Z" /><glyph glyph-name="cid10669" unicode="&#x501a;" d="M682 1501 L1217 1501 Q1235 1586 1241 1698 L1397 1698 Q1392 1646 1386 1596 Q1380 1546 1372 1501 L1903 1501 L1903 1370 L1341 1370 Q1335 1353 1329 1336.5 Q1323 1320 1317 1305 Q1415 1265 1523.5 1215 Q1632 1165 1730.5 1115 Q1829 1065 1896 1024 L1802 907 Q1742 946 1651 996 Q1560 1046 1456.5 1098 Q1353 1150 1253 1194 Q1178 1090 1045.5 1020 Q913 950 696 905 Q686 931 662 967 Q638 1003 616 1026 Q871 1072 999.5 1155 Q1128 1238 1182 1370 L682 1370 L682 1501 ZM547 1706 L692 1661 Q648 1549 594.5 1437 Q541 1325 479 1221 L479 -154 L334 -154 L334 995 Q233 853 129 743 Q117 771 90 819 Q63 867 43 893 Q143 991 237 1121.5 Q331 1252 410 1401 Q489 1550 547 1706 ZM1241 485 L891 485 L891 240 L1241 240 L1241 485 ZM1380 125 L891 125 L891 6 L756 6 L756 598 L1380 598 L1380 125 ZM1960 889 L1960 754 L1776 754 L1776 12 Q1776 -54 1756.5 -87 Q1737 -120 1688 -137 Q1638 -154 1552.5 -157 Q1467 -160 1335 -160 Q1331 -131 1317.5 -93 Q1304 -55 1288 -25 Q1388 -28 1471.5 -28 Q1555 -28 1583 -27 Q1608 -25 1617 -17 Q1626 -9 1626 12 L1626 754 L594 754 L594 889 L1960 889 Z" /><glyph glyph-name="cid10678" unicode="&#x501f;" d="M580 1706 L723 1663 Q678 1549 624.5 1437 Q571 1325 510 1219 L510 -154 L365 -154 L365 993 Q317 924 265.5 861.5 Q214 799 162 745 Q150 773 123 820.5 Q96 868 76 893 Q176 991 270 1121.5 Q364 1252 443 1401 Q522 1550 580 1706 ZM1645 610 L1036 610 L1036 401 L1645 401 L1645 610 ZM1036 61 L1645 61 L1645 276 L1036 276 L1036 61 ZM887 -156 L887 741 L1798 741 L1798 -152 L1645 -152 L1645 -66 L1036 -66 L1036 -156 L887 -156 ZM1167 1311 L1167 1042 L1495 1042 L1495 1311 L1167 1311 ZM1642 1042 L1946 1042 L1946 903 L715 903 L715 1042 L1022 1042 L1022 1311 L772 1311 L772 1446 L1022 1446 L1022 1712 L1167 1712 L1167 1446 L1495 1446 L1495 1712 L1642 1712 L1642 1446 L1905 1446 L1905 1311 L1642 1311 L1642 1042 Z" /><glyph glyph-name="cid10680" unicode="&#x5021;" d="M1618 1317 L1618 1507 L913 1507 L913 1317 L1618 1317 ZM1618 1006 L1618 1200 L913 1200 L913 1006 L1618 1006 ZM1772 1630 L1772 883 L764 883 L764 1630 L1772 1630 ZM537 1706 L682 1663 Q641 1546 588 1431.5 Q535 1317 475 1206 L475 -154 L326 -154 L326 965 Q283 902 237 844.5 Q191 787 145 735 Q133 764 105 814.5 Q77 865 55 893 Q152 992 241.5 1122.5 Q331 1253 406.5 1402 Q482 1551 537 1706 ZM825 57 L1710 57 L1710 274 L825 274 L825 57 ZM1710 608 L825 608 L825 403 L1710 403 L1710 608 ZM676 739 L1866 739 L1866 -145 L1710 -145 L1710 -76 L825 -76 L825 -156 L676 -156 L676 739 Z" /><glyph glyph-name="cid10690" unicode="&#x5026;" d="M1618 1651 L1745 1614 Q1706 1540 1655.5 1460 Q1605 1380 1559 1323 Q1540 1338 1504 1356 Q1468 1374 1444 1384 Q1491 1440 1537 1511 Q1583 1582 1618 1651 ZM1053 1409 L942 1337 Q914 1388 862 1464.5 Q810 1541 764 1604 L868 1665 Q916 1605 970.5 1532.5 Q1025 1460 1053 1409 ZM532 1706 L676 1663 Q596 1431 479 1214 L479 -150 L334 -150 L334 971 Q292 908 249 850.5 Q206 793 162 743 Q150 771 122 819 Q94 867 74 893 Q166 992 251.5 1122.5 Q337 1253 409 1402 Q481 1551 532 1706 ZM954 649 L1583 649 Q1549 694 1518.5 742.5 Q1488 791 1462 840 L1085 840 Q1056 789 1023.5 740.5 Q991 692 954 649 ZM1935 840 L1606 840 Q1669 738 1757 652.5 Q1845 567 1942 518 Q1915 498 1887 466 Q1859 434 1845 410 Q1781 446 1721 500 Q1661 554 1608 618 L1608 324 Q1608 274 1595.5 246 Q1583 218 1546 203 Q1511 186 1454 184 Q1397 182 1311 182 Q1306 210 1294 241.5 Q1282 273 1268 299 Q1332 297 1380 297 Q1428 297 1444 299 Q1473 299 1473 324 L1473 524 L1001 524 L1001 70 Q1001 24 1026.5 9 Q1052 -6 1141 -6 L1542 -6 Q1589 -6 1613.5 9.5 Q1638 25 1648 73.5 Q1658 122 1663 219 Q1688 202 1725.5 187 Q1763 172 1794 166 Q1785 45 1762 -20.5 Q1739 -86 1689.5 -111.5 Q1640 -137 1552 -137 L1133 -137 Q1028 -137 969 -120 Q910 -103 886 -58 Q862 -13 862 70 L862 547 Q816 501 765 457.5 Q714 414 657 377 Q642 400 608.5 437.5 Q575 475 551 494 Q775 631 913 840 L600 840 L600 965 L987 965 Q1015 1014 1037.5 1067 Q1060 1120 1081 1176 L729 1176 L729 1300 L1122 1300 Q1150 1396 1171.5 1499 Q1193 1602 1210 1714 L1358 1696 Q1341 1590 1320.5 1491.5 Q1300 1393 1274 1300 L1815 1300 L1815 1176 L1235 1176 Q1217 1120 1195.5 1067 Q1174 1014 1149 965 L1935 965 L1935 840 Z" /><glyph glyph-name="cid10725" unicode="&#x503a;" d="M1200 1286 L1200 1415 L686 1415 L686 1536 L1200 1536 L1200 1712 L1341 1712 L1341 1536 L1827 1536 L1827 1415 L1341 1415 L1341 1286 L1774 1286 L1774 1176 L1341 1176 L1341 1028 L1915 1028 L1915 913 L633 913 L633 1028 L1200 1028 L1200 1176 L748 1176 L748 1286 L1200 1286 ZM1800 215 L1657 215 L1657 682 L883 682 L883 215 L743 215 L743 791 L1800 791 L1800 215 ZM500 1706 L643 1667 Q609 1561 567 1455 Q525 1349 479 1247 L479 -154 L334 -154 L334 977 Q295 912 254.5 854 Q214 796 174 743 Q162 770 132.5 818.5 Q103 867 82 893 Q211 1043 320 1259.5 Q429 1476 500 1706 ZM1327 559 L1327 381 Q1327 317 1305.5 245.5 Q1284 174 1218.5 101.5 Q1153 29 1023 -38 Q893 -105 676 -160 Q664 -135 636.5 -102 Q609 -69 586 -49 Q794 -6 914.5 48 Q1035 102 1093 161 Q1151 220 1167.5 277.5 Q1184 335 1184 385 L1184 559 L1327 559 ZM1323 104 L1399 201 Q1488 170 1589.5 129 Q1691 88 1784 45 Q1877 2 1939 -35 L1860 -143 Q1799 -106 1708 -61.5 Q1617 -17 1515.5 27 Q1414 71 1323 104 Z" /><glyph glyph-name="cid10729" unicode="&#x503c;" d="M545 1710 L682 1667 Q598 1426 473 1200 L473 -156 L332 -156 L332 973 Q290 911 246 855.5 Q202 800 158 750 Q147 776 119.5 823.5 Q92 871 74 899 Q168 998 255.5 1128 Q343 1258 417.5 1406.5 Q492 1555 545 1710 ZM922 203 L922 35 L1632 35 L1632 203 L922 203 ZM1632 1061 L922 1061 L922 889 L1632 889 L1632 1061 ZM1632 602 L1632 776 L922 776 L922 602 L1632 602 ZM922 492 L922 315 L1632 315 L1632 492 L922 492 ZM1774 35 L1956 35 L1956 -96 L590 -96 L590 35 L784 35 L784 1180 L1137 1180 Q1146 1221 1155.5 1270 Q1165 1319 1176 1370 L676 1370 L676 1503 L1198 1503 Q1206 1559 1213 1612.5 Q1220 1666 1225 1712 L1386 1702 Q1377 1656 1367.5 1605 Q1358 1554 1348 1503 L1894 1503 L1894 1370 L1321 1370 Q1309 1319 1297.5 1270 Q1286 1221 1274 1180 L1774 1180 L1774 35 Z" /><glyph glyph-name="cid10731" unicode="&#x503e;" d="M1112 1243 L1360 1243 Q1377 1291 1394 1346.5 Q1411 1402 1423 1454 L1026 1454 L1026 1585 L1952 1585 L1952 1454 L1583 1454 Q1563 1399 1541 1345 Q1519 1291 1497 1243 L1858 1243 L1858 301 L1720 301 L1720 1110 L1245 1110 L1245 297 L1112 297 L1112 1243 ZM451 1708 L588 1669 Q557 1572 520.5 1476 Q484 1380 444 1286 L444 -156 L305 -156 L305 1008 Q216 846 119 727 Q110 753 85 804 Q60 855 43 881 Q169 1034 276 1253.5 Q383 1473 451 1708 ZM774 418 L1016 535 Q1014 505 1015.5 467 Q1017 429 1020 408 Q906 344 836 303.5 Q766 263 727.5 238.5 Q689 214 670.5 200 Q652 186 641 174 Q635 202 616 242.5 Q597 283 582 309 Q602 320 621.5 349 Q641 378 641 438 L641 1489 L774 1489 L774 1104 L1034 1104 L1034 973 L774 973 L774 418 ZM1538 1004 L1538 580 Q1538 485 1523 383.5 Q1508 282 1458.5 183 Q1409 84 1307.5 -4.5 Q1206 -93 1034 -162 Q1022 -140 998.5 -112 Q975 -84 952 -68 Q1107 -8 1199.5 71.5 Q1292 151 1338 239.5 Q1384 328 1398.5 416.5 Q1413 505 1413 582 L1413 1004 L1538 1004 ZM1491 156 L1577 248 Q1642 205 1715.5 151.5 Q1789 98 1854 45.5 Q1919 -7 1960 -49 L1872 -158 Q1831 -114 1767.5 -58.5 Q1704 -3 1631.5 53.5 Q1559 110 1491 156 Z" /><glyph glyph-name="cid10746" unicode="&#x5047;" d="M1860 1622 L1860 991 L1286 991 L1286 1122 L1718 1122 L1718 1491 L1286 1491 L1286 1622 L1860 1622 ZM436 1702 L578 1671 Q550 1562 515.5 1455.5 Q481 1349 442 1247 L442 -156 L297 -156 L297 934 Q265 876 231 821 Q197 766 160 719 Q149 746 124.5 795.5 Q100 845 80 872 Q197 1025 288 1245 Q379 1465 436 1702 ZM1069 1493 L786 1493 L786 1118 L1069 1118 L1069 1493 ZM1182 256 L786 256 L786 -152 L645 -152 L645 1622 L1204 1622 L1204 987 L786 987 L786 768 L1159 768 L1159 639 L786 639 L786 385 L1182 385 L1182 256 ZM1724 705 L1386 705 Q1416 602 1457 507 Q1498 412 1554 328 Q1667 487 1724 705 ZM1800 838 L1888 809 Q1851 623 1787.5 475 Q1724 327 1636 213 Q1705 130 1790.5 65.5 Q1876 1 1974 -39 Q1951 -57 1924 -91.5 Q1897 -126 1882 -154 Q1784 -109 1700.5 -42 Q1617 25 1548 111 Q1459 20 1355 -47 Q1251 -114 1135 -160 Q1122 -135 1099.5 -101 Q1077 -67 1057 -47 Q1172 -7 1277 60 Q1382 127 1468 221 Q1402 321 1352.5 437.5 Q1303 554 1268 682 L1362 705 L1229 705 L1229 834 L1776 834 L1800 838 Z" /><glyph glyph-name="cid10762" unicode="&#x504f;" d="M578 1706 L719 1661 Q674 1549 620.5 1437 Q567 1325 506 1221 L506 -152 L360 -152 L360 995 Q262 858 154 745 Q143 772 116.5 819.5 Q90 867 70 893 Q170 991 264.5 1121.5 Q359 1252 439 1401 Q519 1550 578 1706 ZM1716 1364 L877 1364 L877 1128 L1716 1128 L1716 1364 ZM1866 999 L877 999 Q875 875 867 729.5 Q859 584 840 432 Q821 280 787 134.5 Q753 -11 700 -135 Q684 -115 645.5 -86.5 Q607 -58 584 -47 Q636 80 666.5 225.5 Q697 371 711.5 521.5 Q726 672 730.5 813.5 Q735 955 735 1073 L735 1491 L1249 1491 Q1232 1537 1208 1588.5 Q1184 1640 1161 1683 L1296 1718 Q1329 1666 1357.5 1604 Q1386 1542 1405 1491 L1866 1491 L1866 999 ZM1585 432 L1774 432 L1774 739 L1585 739 L1585 432 ZM1300 432 L1481 432 L1481 739 L1300 739 L1300 432 ZM1024 432 L1196 432 L1196 739 L1024 739 L1024 432 ZM1896 860 L1896 0 Q1896 -45 1886 -73.5 Q1876 -102 1845 -119 Q1816 -134 1770.5 -138.5 Q1725 -143 1659 -143 Q1654 -117 1641.5 -83 Q1629 -49 1618 -25 Q1664 -26 1699.5 -26 Q1735 -26 1749 -25 Q1774 -25 1774 0 L1774 311 L1585 311 L1585 -86 L1481 -86 L1481 311 L1300 311 L1300 -94 L1196 -94 L1196 311 L1024 311 L1024 -145 L901 -145 L901 860 L1896 860 Z" /><glyph glyph-name="cid10782" unicode="&#x505a;" d="M483 1702 L623 1663 Q589 1560 547 1456.5 Q505 1353 459 1253 L459 -158 L317 -158 L317 993 Q273 918 223.5 849.5 Q174 781 125 723 Q114 748 88.5 798.5 Q63 849 45 877 Q133 978 215 1110.5 Q297 1243 365.5 1394 Q434 1545 483 1702 ZM1731 1186 L1448 1186 Q1445 1175 1442 1165.5 Q1439 1156 1436 1147 Q1454 990 1485.5 823 Q1517 656 1577 500 Q1637 644 1673 815 Q1709 986 1731 1186 ZM1079 201 L1079 657 L752 657 L752 201 L1079 201 ZM1960 1186 L1866 1186 Q1835 929 1784 719.5 Q1733 510 1649 340 Q1709 226 1790.5 129 Q1872 32 1982 -37 Q1961 -58 1931.5 -93.5 Q1902 -129 1888 -158 Q1787 -87 1709 6 Q1631 99 1573 207 Q1501 96 1409 5 Q1317 -86 1200 -160 Q1186 -140 1155.5 -107 Q1125 -74 1104 -55 Q1236 20 1334.5 121 Q1433 222 1503 346 Q1445 483 1408 629 Q1371 775 1350 920 Q1304 818 1251 735 Q1245 744 1235 757.5 Q1225 771 1214 786 L1214 68 L752 68 L752 -66 L616 -66 L616 791 L846 791 L846 1178 L563 1178 L563 1317 L846 1317 L846 1690 L991 1690 L991 1317 L1255 1317 L1255 1178 L991 1178 L991 791 L1210 791 Q1181 830 1155 852 Q1258 1010 1323 1238 Q1388 1466 1423 1712 L1561 1690 Q1545 1596 1526 1503 Q1507 1410 1483 1319 L1960 1319 L1960 1186 Z" /><glyph glyph-name="cid10786" unicode="&#x505c;" d="M543 1710 L682 1667 Q637 1547 584 1429 Q531 1311 471 1200 L471 -156 L330 -156 L330 971 Q288 909 244.5 853.5 Q201 798 158 748 Q147 775 120.5 823 Q94 871 76 897 Q169 996 256 1126.5 Q343 1257 416.5 1406 Q490 1555 543 1710 ZM815 369 L815 494 L1753 494 L1753 369 L1366 369 L1366 10 Q1366 -50 1349 -82 Q1332 -114 1284 -129 Q1236 -144 1156.5 -147 Q1077 -150 958 -150 Q952 -119 938 -83 Q924 -47 907 -16 Q1001 -19 1076 -19.5 Q1151 -20 1176 -18 Q1199 -17 1208 -10.5 Q1217 -4 1217 14 L1217 369 L815 369 ZM637 440 L637 772 L1939 772 L1939 438 L1802 438 L1802 645 L770 645 L770 440 L637 440 ZM1624 1010 L1624 1180 L956 1180 L956 1010 L1624 1010 ZM817 1290 L1772 1290 L1772 899 L817 899 L817 1290 ZM1397 1530 L1942 1530 L1942 1401 L668 1401 L668 1530 L1233 1530 Q1216 1568 1196.5 1608 Q1177 1648 1155 1683 L1290 1724 Q1321 1681 1350.5 1627 Q1380 1573 1397 1530 Z" /><glyph glyph-name="cid10804" unicode="&#x5065;" d="M1497 1425 L1497 1270 L1688 1270 L1688 1425 L1497 1425 ZM1688 991 L1688 1151 L1497 1151 L1497 991 L1688 991 ZM1366 991 L1366 1151 L1006 1151 L1006 1270 L1366 1270 L1366 1425 L1100 1425 L1100 1542 L1366 1542 L1366 1712 L1497 1712 L1497 1542 L1808 1542 L1808 1270 L1952 1270 L1952 1151 L1808 1151 L1808 874 L1497 874 L1497 725 L1849 725 L1849 600 L1497 600 L1497 440 L1915 440 L1915 315 L1497 315 L1497 70 L1366 70 L1366 315 L1014 315 L1014 440 L1366 440 L1366 600 L1065 600 L1065 725 L1366 725 L1366 874 L1100 874 L1100 991 L1366 991 ZM449 1708 L584 1671 Q554 1567 517 1463.5 Q480 1360 438 1262 L438 -154 L303 -154 L303 993 Q232 869 154 770 Q146 796 121 846.5 Q96 897 78 926 Q196 1069 292.5 1276.5 Q389 1484 449 1708 ZM940 971 L1020 952 Q1000 734 962.5 558.5 Q925 383 866 248 Q964 145 1083 91.5 Q1202 38 1336 18 Q1470 -2 1614 -2 Q1635 -2 1680.5 -2 Q1726 -2 1780.5 -2 Q1835 -2 1884.5 -1.5 Q1934 -1 1962 0 Q1947 -25 1932.5 -63 Q1918 -101 1915 -129 L1606 -129 Q1450 -129 1307.5 -108 Q1165 -87 1039.5 -31.5 Q914 24 811 127 Q711 -54 567 -158 Q552 -135 520.5 -105 Q489 -75 469 -61 Q623 40 721 233 Q667 307 621.5 401.5 Q576 496 541 612 L651 657 Q676 570 707.5 497 Q739 424 776 365 Q813 463 838.5 584 Q864 705 881 846 L571 846 Q627 963 691.5 1121 Q756 1279 811 1432 L586 1432 L586 1565 L999 1565 Q965 1471 924 1366.5 Q883 1262 841 1159.5 Q799 1057 760 969 L926 969 L940 971 Z" /><glyph glyph-name="cid10832" unicode="&#x5076;" d="M547 1706 L688 1663 Q645 1546 592 1430 Q539 1314 479 1206 L479 -160 L334 -160 L334 973 Q248 848 154 743 Q141 771 113.5 819 Q86 867 68 893 Q163 992 251.5 1122.5 Q340 1253 416 1402 Q492 1551 547 1706 ZM903 981 L1219 981 L1219 1182 L903 1182 L903 981 ZM903 1495 L903 1296 L1219 1296 L1219 1495 L903 1495 ZM1683 1296 L1683 1495 L1354 1495 L1354 1296 L1683 1296 ZM1683 981 L1683 1182 L1354 1182 L1354 981 L1683 981 ZM1915 700 L1915 2 Q1915 -58 1899.5 -89 Q1884 -120 1839 -137 Q1793 -154 1715.5 -157.5 Q1638 -161 1522 -160 Q1517 -131 1504.5 -94.5 Q1492 -58 1479 -31 Q1568 -35 1639.5 -34.5 Q1711 -34 1733 -33 Q1756 -31 1765 -24 Q1774 -17 1774 4 L1774 569 L1354 569 L1354 311 L1546 328 Q1528 366 1509.5 400.5 Q1491 435 1473 469 L1565 504 Q1623 410 1675 300.5 Q1727 191 1747 113 L1649 74 Q1641 104 1627.5 140 Q1614 176 1597 217 Q1412 196 1230.5 175 Q1049 154 903 137 L874 270 Q947 276 1034.5 283.5 Q1122 291 1219 299 L1219 569 L809 569 L809 -158 L664 -158 L664 700 L1219 700 L1219 860 L760 860 L760 1616 L1831 1616 L1831 860 L1354 860 L1354 700 L1915 700 Z" /><glyph glyph-name="cid10835" unicode="&#x5077;" d="M483 1702 L623 1663 Q557 1449 467 1245 L467 -158 L322 -158 L322 961 Q283 893 241 831.5 Q199 770 158 715 Q147 742 121.5 791.5 Q96 841 76 870 Q202 1026 309 1246.5 Q416 1467 483 1702 ZM805 391 L1100 391 L1100 557 L805 557 L805 391 ZM1100 829 L805 829 L805 672 L1100 672 L1100 829 ZM1229 952 L1229 14 Q1229 -36 1219 -67 Q1209 -98 1176 -115 Q1145 -133 1096 -137 Q1047 -141 981 -141 Q976 -112 965 -74.5 Q954 -37 942 -8 Q988 -10 1024.5 -10 Q1061 -10 1075 -10 Q1100 -8 1100 14 L1100 274 L805 274 L805 -150 L672 -150 L672 952 L1229 952 ZM1616 1208 L1616 1083 L854 1083 L854 1208 L1616 1208 ZM1518 913 L1518 180 L1395 180 L1395 913 L1518 913 ZM1692 16 L1692 989 L1821 989 L1821 16 Q1821 -42 1807.5 -73 Q1794 -104 1755 -121 Q1717 -138 1655.5 -141.5 Q1594 -145 1503 -145 Q1499 -118 1486.5 -81 Q1474 -44 1458 -14 Q1529 -16 1584.5 -16 Q1640 -16 1659 -14 Q1692 -14 1692 16 ZM1235 1722 L1358 1665 Q1352 1654 1343 1643 Q1334 1632 1325 1620 Q1456 1485 1615.5 1394.5 Q1775 1304 1952 1235 Q1927 1213 1900.5 1180 Q1874 1147 1862 1118 Q1688 1197 1535.5 1295.5 Q1383 1394 1249 1532 Q1123 1398 961 1286 Q799 1174 633 1100 Q614 1126 587.5 1157.5 Q561 1189 535 1212 Q669 1266 801.5 1345 Q934 1424 1047 1520.5 Q1160 1617 1235 1722 Z" /><glyph glyph-name="cid10847" unicode="&#x507f;" d="M1688 1675 L1839 1620 Q1787 1548 1728 1476 Q1669 1404 1620 1354 L1499 1401 Q1547 1458 1600.5 1536.5 Q1654 1615 1688 1675 ZM795 1214 L795 954 L647 954 L647 1348 L930 1348 Q901 1403 847.5 1477 Q794 1551 741 1610 L868 1671 Q927 1611 983 1537.5 Q1039 1464 1067 1409 L952 1348 L1198 1348 L1198 1718 L1350 1718 L1350 1348 L1913 1348 L1913 954 L1761 954 L1761 1214 L795 1214 ZM1751 848 L821 848 L821 989 L1751 989 L1751 848 ZM479 1700 L618 1661 Q588 1558 548.5 1456.5 Q509 1355 465 1255 L465 -158 L317 -158 L317 973 Q278 904 234 841 Q190 778 147 723 Q137 751 110.5 801 Q84 851 66 881 Q150 982 227 1114.5 Q304 1247 368.5 1396.5 Q433 1546 479 1700 ZM1954 510 L1225 510 Q1154 396 1072 285 Q990 174 905 80 L1624 145 Q1584 205 1539 263.5 Q1494 322 1452 373 L1579 438 Q1646 359 1716 267.5 Q1786 176 1845.5 87.5 Q1905 -1 1939 -70 L1802 -145 Q1787 -112 1762.5 -69 Q1738 -26 1710 18 Q1455 -6 1284.5 -23 Q1114 -40 1008 -51.5 Q902 -63 843.5 -71.5 Q785 -80 756.5 -86.5 Q728 -93 711 -100 Q703 -76 686 -26 Q669 24 655 57 Q685 60 715 87.5 Q745 115 782 158 Q803 180 843.5 232.5 Q884 285 934 357 Q984 429 1032 510 L592 510 L592 655 L1954 655 L1954 510 Z" /><glyph glyph-name="cid10859" unicode="&#x5085;" d="M1706 1153 L1362 1153 L1362 1028 L1706 1028 L1706 1153 ZM1362 799 L1706 799 L1706 928 L1362 928 L1362 799 ZM881 799 L1217 799 L1217 928 L881 928 L881 799 ZM1217 1153 L881 1153 L881 1028 L1217 1028 L1217 1153 ZM657 1509 L1217 1509 L1217 1706 L1362 1706 L1362 1509 L1673 1509 Q1629 1539 1575.5 1571.5 Q1522 1604 1475 1630 L1559 1704 Q1620 1673 1694 1631.5 Q1768 1590 1812 1561 L1763 1509 L1942 1509 L1942 1386 L1362 1386 L1362 1262 L1851 1262 L1851 582 L1706 582 L1706 698 L1362 698 L1362 600 L1217 600 L1217 698 L881 698 L881 580 L737 580 L737 1262 L1217 1262 L1217 1386 L657 1386 L657 1509 ZM547 1706 L690 1661 Q599 1432 479 1223 L479 -154 L334 -154 L334 997 Q285 927 232 864 Q179 801 127 745 Q115 772 88.5 820 Q62 868 41 893 Q141 991 235.5 1121.5 Q330 1252 409.5 1401 Q489 1550 547 1706 ZM813 256 L926 324 Q971 282 1022.5 231.5 Q1074 181 1120 133 Q1166 85 1196 49 L1081 -33 Q1052 4 1007 54.5 Q962 105 911 158 Q860 211 813 256 ZM1970 483 L1970 358 L1673 358 L1673 6 Q1673 -55 1657 -86.5 Q1641 -118 1595 -135 Q1548 -151 1468.5 -153.5 Q1389 -156 1274 -156 Q1269 -125 1255.5 -89.5 Q1242 -54 1227 -25 Q1319 -28 1391.5 -28 Q1464 -28 1487 -27 Q1511 -25 1519.5 -17.5 Q1528 -10 1528 10 L1528 358 L602 358 L602 483 L1528 483 L1528 633 L1673 633 L1673 483 L1970 483 Z" /><glyph glyph-name="cid10873" unicode="&#x508d;" d="M1864 1522 L1864 1397 L700 1397 L700 1522 L1233 1522 Q1225 1568 1212 1619.5 Q1199 1671 1184 1714 L1331 1735 Q1350 1686 1366.5 1627.5 Q1383 1569 1393 1522 L1864 1522 ZM551 1706 L692 1663 Q648 1543 594.5 1426 Q541 1309 479 1198 L479 -154 L334 -154 L334 967 Q292 905 247 850 Q202 795 158 745 Q147 773 119.5 820.5 Q92 868 72 893 Q167 992 256 1122.5 Q345 1253 421 1402 Q497 1551 551 1706 ZM1176 922 L1323 944 Q1341 895 1360 838.5 Q1379 782 1386 737 L1880 737 L1880 608 L1163 608 Q1159 559 1152.5 511 Q1146 463 1139 420 L1782 420 Q1782 420 1780.5 397 Q1779 374 1778 358 Q1759 139 1736.5 35.5 Q1714 -68 1677 -104 Q1653 -129 1622.5 -140 Q1592 -151 1550 -154 Q1515 -157 1448.5 -156 Q1382 -155 1309 -152 Q1307 -121 1296 -85 Q1285 -49 1268 -23 Q1337 -29 1397 -30 Q1457 -31 1483 -31 Q1507 -31 1523 -28 Q1539 -25 1552 -14 Q1572 7 1588 76 Q1604 145 1618 291 L1110 291 Q1064 139 966.5 25 Q869 -89 688 -164 Q676 -138 648.5 -105.5 Q621 -73 596 -53 Q755 7 840.5 101 Q926 195 962.5 322 Q999 449 1012 608 L680 608 L680 737 L1227 737 Q1219 780 1205 830 Q1191 880 1176 922 ZM1591 1133 L1919 1133 L1919 809 L1767 809 L1767 1010 L801 1010 L801 809 L651 809 L651 1133 L981 1133 Q972 1180 953.5 1243.5 Q935 1307 913 1358 L1053 1384 Q1079 1326 1102 1258.5 Q1125 1191 1133 1147 L1073 1133 L1440 1133 Q1467 1192 1495 1265 Q1523 1338 1538 1395 L1698 1366 Q1673 1306 1645 1245.5 Q1617 1185 1591 1133 Z" /><glyph glyph-name="cid10928" unicode="&#x50a8;" d="M936 1315 L825 1235 Q793 1295 727.5 1378.5 Q662 1462 596 1530 L700 1599 Q766 1537 835 1456.5 Q904 1376 936 1315 ZM449 1716 L575 1681 Q514 1464 424 1255 L424 -152 L291 -152 L291 985 Q213 848 135 743 Q124 768 100 813.5 Q76 859 57 885 Q179 1040 280 1260.5 Q381 1481 449 1716 ZM844 172 L1040 287 Q1047 256 1058.5 220.5 Q1070 185 1077 164 Q969 97 902 54.5 Q835 12 797.5 -14 Q760 -40 741 -55.5 Q722 -71 711 -84 Q701 -58 678 -18.5 Q655 21 637 41 Q658 56 684.5 95 Q711 134 711 199 L711 918 L510 918 L510 1063 L844 1063 L844 172 ZM1731 410 L1731 614 L1288 614 L1288 410 L1731 410 ZM1288 82 L1731 82 L1731 293 L1288 293 L1288 82 ZM1432 1352 L1432 1096 L1477 1096 Q1524 1156 1568.5 1220 Q1613 1284 1655 1352 L1432 1352 ZM1956 956 L1538 956 Q1490 898 1438.5 844.5 Q1387 791 1333 741 L1868 741 L1868 -141 L1731 -141 L1731 -45 L1288 -45 L1288 -150 L1157 -150 L1157 594 Q1120 568 1082 541 Q1044 514 1006 489 Q992 511 960.5 548 Q929 585 907 606 Q1029 675 1140.5 763.5 Q1252 852 1354 956 L967 956 L967 1096 L1292 1096 L1292 1352 L1026 1352 L1026 1483 L1292 1483 L1292 1714 L1432 1714 L1432 1483 L1669 1483 L1669 1376 Q1708 1441 1741.5 1507.5 Q1775 1574 1804 1645 L1939 1608 Q1820 1330 1649 1096 L1956 1096 L1956 956 Z" /><glyph glyph-name="cid10934" unicode="&#x50ac;" d="M1864 1618 L1864 1169 L748 1169 L748 1618 L887 1618 L887 1305 L1241 1305 L1241 1710 L1386 1710 L1386 1305 L1718 1305 L1718 1618 L1864 1618 ZM475 1702 L614 1661 Q585 1566 549 1468.5 Q513 1371 473 1276 L473 -158 L328 -158 L328 983 Q286 909 242 842 Q198 775 154 717 Q141 743 115.5 792 Q90 841 72 870 Q155 973 230 1107 Q305 1241 367.5 1393 Q430 1545 475 1702 ZM899 233 L899 68 L1313 68 L1313 233 L899 233 ZM1313 633 L1313 791 L899 791 L899 633 L1313 633 ZM1313 350 L1313 516 L899 516 L899 350 L1313 350 ZM1956 68 L1956 -63 L899 -63 L899 -160 L760 -160 L760 612 Q724 559 686 509 Q648 459 608 418 Q599 441 571.5 485 Q544 529 524 555 Q633 663 720.5 819 Q808 975 860 1147 L995 1110 Q980 1062 962 1013 Q944 964 924 918 L1333 918 Q1316 964 1291 1016 Q1266 1068 1241 1112 L1374 1151 Q1408 1097 1441 1032 Q1474 967 1489 918 L1921 918 L1921 791 L1458 791 L1458 633 L1874 633 L1874 516 L1458 516 L1458 350 L1874 350 L1874 233 L1458 233 L1458 68 L1956 68 Z" /><glyph glyph-name="cid10946" unicode="&#x50b2;" d="M483 1712 L623 1673 Q590 1564 548 1453.5 Q506 1343 459 1237 L459 -156 L317 -156 L317 967 Q279 902 239.5 843 Q200 784 160 733 Q147 758 121.5 808.5 Q96 859 76 885 Q160 987 235.5 1120.5 Q311 1254 374 1405 Q437 1556 483 1712 ZM1716 1210 L1499 1210 Q1493 1193 1488 1176.5 Q1483 1160 1477 1145 Q1494 985 1525 817.5 Q1556 650 1612 494 Q1658 643 1681.5 821.5 Q1705 1000 1716 1210 ZM1956 1210 L1849 1210 Q1836 938 1799.5 717 Q1763 496 1688 319 Q1743 214 1816 123.5 Q1889 33 1985 -33 Q1963 -53 1933 -89.5 Q1903 -126 1886 -156 Q1802 -90 1734 -7 Q1666 76 1614 170 Q1557 73 1479 -10 Q1401 -93 1298 -164 Q1288 -141 1262.5 -101 Q1237 -61 1219 -41 Q1328 28 1407.5 118.5 Q1487 209 1544 322 Q1483 464 1447.5 619.5 Q1412 775 1391 924 Q1371 884 1352.5 849 Q1334 814 1313 780 L1303 793 L1303 698 L891 698 Q888 649 884.5 602 Q881 555 874 512 L1249 512 Q1249 512 1248 490 Q1247 468 1245 453 Q1237 279 1227 170.5 Q1217 62 1202.5 4 Q1188 -54 1167 -78 Q1147 -102 1122 -113 Q1097 -124 1063 -127 Q1034 -130 983.5 -130 Q933 -130 877 -127 Q873 -59 842 0 Q895 -6 937.5 -7 Q980 -8 997 -8 Q1019 -8 1031.5 -5 Q1044 -2 1055 10 Q1072 32 1083.5 116 Q1095 200 1106 389 L858 389 Q829 214 764.5 78 Q700 -58 590 -158 Q576 -136 543.5 -103 Q511 -70 492 -53 Q633 63 686 252.5 Q739 442 750 698 L541 698 L541 825 L874 825 L874 1038 L610 1038 L610 1165 L874 1165 L874 1356 L582 1356 L582 1483 L874 1483 L874 1690 L1014 1690 L1014 1483 L1284 1483 L1284 1356 L1014 1356 L1014 1165 L1249 1165 L1249 1038 L1014 1038 L1014 825 L1272 825 Q1255 842 1238.5 858 Q1222 874 1208 887 Q1307 1037 1371.5 1257.5 Q1436 1478 1473 1714 L1612 1690 Q1596 1601 1577 1512.5 Q1558 1424 1536 1341 L1956 1341 L1956 1210 Z" /><glyph glyph-name="cid10962" unicode="&#x50bb;" d="M1616 1087 L1542 997 Q1493 1031 1425.5 1071 Q1358 1111 1280 1149 Q1116 1058 961 995 Q947 1012 920.5 1041.5 Q894 1071 874 1087 Q945 1112 1018 1142.5 Q1091 1173 1161 1208 Q1098 1238 1035 1264 Q972 1290 913 1313 L983 1393 Q1054 1370 1130.5 1337.5 Q1207 1305 1282 1270 Q1337 1302 1387 1335.5 Q1437 1369 1477 1403 L1587 1358 Q1546 1321 1496 1285.5 Q1446 1250 1393 1217 Q1459 1183 1516 1150.5 Q1573 1118 1616 1087 ZM1694 983 L1694 1425 L821 1425 L821 983 L1694 983 ZM1833 1536 L1833 870 L688 870 L688 1536 L1104 1536 Q1132 1577 1157.5 1624 Q1183 1671 1200 1706 L1358 1673 Q1335 1636 1308.5 1602 Q1282 1568 1257 1536 L1833 1536 ZM1372 768 L1448 860 Q1526 834 1614.5 798 Q1703 762 1784.5 724 Q1866 686 1921 653 L1845 551 Q1793 583 1713 622.5 Q1633 662 1543 700.5 Q1453 739 1372 768 ZM666 551 L594 643 Q668 669 755.5 706.5 Q843 744 927 785.5 Q1011 827 1073 864 L1151 778 Q1083 735 998 693 Q913 651 826 614.5 Q739 578 666 551 ZM500 1702 L639 1663 Q605 1562 565 1460 Q525 1358 479 1260 L479 -150 L334 -150 L334 989 Q289 914 239.5 845.5 Q190 777 141 717 Q131 743 105.5 792 Q80 841 61 870 Q150 973 231.5 1106.5 Q313 1240 382 1392 Q451 1544 500 1702 ZM991 414 L981 406 Q1035 339 1107.5 282 Q1180 225 1266 176 Q1349 225 1417.5 284 Q1486 343 1538 414 L991 414 ZM1645 528 L1733 487 Q1674 371 1589 279 Q1504 187 1395 115 Q1643 8 1946 -33 Q1924 -53 1902 -87 Q1880 -121 1866 -145 Q1534 -92 1270 43 Q1127 -31 963 -80 Q799 -129 627 -158 Q619 -132 600.5 -97 Q582 -62 565 -41 Q717 -21 865.5 17.5 Q1014 56 1145 115 Q1071 162 1006 218.5 Q941 275 889 340 Q846 309 799 281.5 Q752 254 702 229 Q687 252 660 279 Q633 306 610 319 Q773 395 894.5 491.5 Q1016 588 1085 674 L1227 647 Q1201 615 1173.5 584 Q1146 553 1114 522 L1620 522 L1645 528 Z" /><glyph glyph-name="cid11000" unicode="&#x50cf;" d="M543 1706 L686 1661 Q643 1544 590 1428 Q537 1312 477 1204 L477 -152 L332 -152 L332 969 Q290 907 245 850 Q200 793 156 743 Q143 771 115.5 819 Q88 867 70 893 Q164 992 251.5 1122.5 Q339 1253 413.5 1402 Q488 1551 543 1706 ZM872 1165 L872 961 L1153 961 Q1190 1016 1207.5 1069 Q1225 1122 1233 1165 L872 1165 ZM1364 1448 L995 1448 Q965 1406 932 1364 Q899 1322 860 1282 L1241 1282 Q1273 1316 1304.5 1360.5 Q1336 1405 1364 1448 ZM1692 961 L1692 1165 L1358 1165 Q1355 1121 1341.5 1068.5 Q1328 1016 1300 961 L1692 961 ZM1753 756 L1855 662 Q1803 628 1745.5 595.5 Q1688 563 1628 532 Q1677 385 1768 261 Q1859 137 1980 74 Q1954 54 1925.5 20.5 Q1897 -13 1882 -41 Q1758 36 1664.5 173.5 Q1571 311 1518 477 Q1466 452 1417 430 Q1452 323 1455.5 220 Q1459 117 1436.5 36.5 Q1414 -44 1370 -86 Q1332 -127 1290.5 -141.5 Q1249 -156 1192 -156 Q1166 -156 1133.5 -155.5 Q1101 -155 1067 -152 Q1065 -124 1056 -86 Q1047 -48 1030 -20 Q1070 -25 1104 -27 Q1138 -29 1165 -29 Q1194 -29 1218.5 -22.5 Q1243 -16 1266 10 Q1298 42 1312.5 119 Q1327 196 1313 293 Q1225 213 1115 141 Q1005 69 888 11.5 Q771 -46 662 -84 Q646 -59 621 -27.5 Q596 4 573 23 Q698 60 831.5 121.5 Q965 183 1083.5 259.5 Q1202 336 1284 418 Q1265 479 1235 532 Q1160 469 1064 408 Q968 347 867.5 296.5 Q767 246 678 213 Q663 236 637.5 265 Q612 294 594 311 Q693 341 803 390 Q913 439 1013 498.5 Q1113 558 1182 618 Q1142 674 1096 715 Q1020 659 917.5 606.5 Q815 554 678 510 Q664 530 639.5 558 Q615 586 592 604 Q753 656 865.5 717.5 Q978 779 1051 844 L735 844 L735 1159 Q686 1112 627 1069 Q611 1094 582 1122 Q553 1150 528 1165 Q697 1284 816 1433.5 Q935 1583 999 1712 L1143 1686 Q1127 1656 1109.5 1626.5 Q1092 1597 1075 1567 L1446 1567 L1473 1575 L1563 1509 Q1529 1453 1486 1393.5 Q1443 1334 1399 1282 L1833 1282 L1833 844 L1227 844 Q1216 830 1204 817.5 Q1192 805 1180 793 Q1247 737 1297 671 Q1347 605 1380 532 Q1476 582 1578.5 643.5 Q1681 705 1753 756 Z" /></font>
</defs>
</svg>
